<?xml version="1.0" standalone="no"?>
<!DOCTYPE svg PUBLIC "-//W3C//DTD SVG 1.1//EN" "http://www.w3.org/Graphics/SVG/1.1/DTD/svg11.dtd" >
<svg xmlns="http://www.w3.org/2000/svg">
<metadata></metadata>
<defs>
<font id="liberation_sansitalic" horiz-adv-x="1139" >
<font-face units-per-em="2048" ascent="1638" descent="-410" />
<missing-glyph horiz-adv-x="569" />
<glyph horiz-adv-x="2048" />
<glyph horiz-adv-x="2048" />
<glyph unicode="&#xd;" horiz-adv-x="569" />
<glyph unicode=" "  horiz-adv-x="569" />
<glyph unicode="&#x09;" horiz-adv-x="569" />
<glyph unicode="&#xa0;" horiz-adv-x="569" />
<glyph unicode="!" horiz-adv-x="569" d="M77 0l40 201h194l-40 -201h-194zM181 397l172 1012h196l-220 -1012h-148z" />
<glyph unicode="&#x22;" horiz-adv-x="727" d="M187 966l63 443h184l-106 -443h-141zM555 966l64 443h184l-106 -443h-142z" />
<glyph unicode="#" d="M39 408v108h225l78 369h-252v108h274l89 408h110l-88 -408h363l88 408h110l-88 -408h211v-108h-233l-78 -369h260v-108h-283l-88 -408h-110l86 408h-363l-84 -408h-110l84 408h-201zM375 516h362l78 369h-360z" />
<glyph unicode="$" d="M-12 376l163 37q12 -55 35.5 -98.5t60 -74t88 -48t120.5 -22.5l96 493q-76 21 -143.5 47.5t-118 67t-79.5 98.5t-29 142q0 93 42 161.5t112.5 114t163 68t192.5 23.5l25 131h114l-27 -137q83 -10 146.5 -35.5t108.5 -64t72.5 -87t39.5 -105.5l-156 -45 q-22 81 -80.5 130.5t-157.5 63.5l-86 -441q71 -19 139.5 -48t122.5 -72.5t87 -104.5t33 -145q0 -93 -35.5 -166.5t-103.5 -125t-167 -80t-226 -32.5l-31 -161h-15l-1 -1h-88l1 1h-11l32 163q-201 14 -306.5 104t-132.5 249zM363 1018q0 -40 14.5 -69t42.5 -51.5t69 -39.5 t93 -33l81 415q-80 -3 -137 -21t-93 -47t-53 -68.5t-17 -85.5zM569 169q73 4 132 19.5t100 45t63.5 73.5t22.5 106q0 47 -16.5 81t-46.5 59t-72 44t-93 35z" />
<glyph unicode="%" horiz-adv-x="1821" d="M146 841q0 37 4 82.5t13 91.5q26 131 70 211t97 123.5t109.5 57.5t105.5 14q53 0 100 -16t82.5 -52.5t56 -95.5t20.5 -144q0 -37 -4.5 -83.5t-13.5 -94.5q-24 -126 -69 -206t-98 -125.5t-109.5 -62.5t-103.5 -17q-55 0 -102.5 18t-82.5 56.5t-55 98.5t-20 144zM260 0 l1186 1409h167l-1188 -1409h-165zM284 827q0 -98 33 -144t93 -46q35 0 68.5 12.5t64.5 46.5t57 94t44 155q21 111 21 186q0 96 -31.5 139t-89.5 43q-37 0 -72 -11.5t-66 -45t-57 -93.5t-45 -158q-20 -106 -20 -178zM1075 305q0 37 4 82.5t13 91.5q26 131 70 211t97 123.5 t109.5 57.5t105.5 14q53 0 100 -16t82.5 -52.5t56 -95.5t20.5 -144q0 -37 -4.5 -83.5t-13.5 -94.5q-24 -126 -69 -206t-98 -125.5t-109.5 -62.5t-103.5 -17q-55 0 -102.5 18t-82.5 56.5t-55 98.5t-20 144zM1213 291q0 -98 33 -144t93 -46q35 0 68.5 12.5t64.5 46.5t57 94 t44 155q21 111 21 186q0 96 -31.5 139t-89.5 43q-37 0 -72 -11.5t-66 -45t-57 -93.5t-45 -158q-20 -106 -20 -178z" />
<glyph unicode="&#x26;" horiz-adv-x="1366" d="M33 351q0 90 28 157.5t82.5 120t134.5 95t184 82.5q-12 51 -20 109t-8 121q0 83 27 153t78 120.5t125.5 79t168.5 28.5q69 0 126.5 -19t98.5 -53.5t63.5 -82.5t22.5 -107q0 -60 -19.5 -107t-53.5 -85.5t-81 -69.5t-102.5 -58t-117 -51.5t-124.5 -49.5q18 -53 39.5 -104.5 t47.5 -103t58.5 -104t72.5 -107.5q40 46 75 97.5t66 106t58.5 110.5t52.5 110l132 -55q-27 -61 -58 -123.5t-66.5 -124t-77 -119.5t-89.5 -109q40 -38 90.5 -58.5t96.5 -20.5q32 0 57.5 3.5t54.5 12.5l-13 -135q-30 -11 -58.5 -16.5t-66.5 -5.5q-74 0 -143 31.5t-128 90.5 q-82 -60 -182 -95t-225 -35q-106 0 -182.5 30t-126.5 81t-74 118.5t-24 141.5zM203 354q0 -54 17 -98.5t49 -76.5t78 -50t105 -18q89 0 163 27t138 74q-43 53 -80.5 112t-69.5 119.5t-57.5 120t-43.5 111.5q-71 -28 -126.5 -58t-94 -67t-58.5 -84.5t-20 -111.5zM592 1041 q0 -45 5.5 -90.5t13.5 -87.5q79 29 148 55t120.5 58t81 73t29.5 99q0 33 -12 60t-33.5 46.5t-51.5 30.5t-67 11q-52 0 -95.5 -16t-74 -48t-47.5 -79.5t-17 -111.5z" />
<glyph unicode="'" horiz-adv-x="391" d="M202 966l63 443h184l-106 -443h-141z" />
<glyph unicode="(" horiz-adv-x="682" d="M96 278q0 181 36.5 350t110 321.5t183 287t255.5 247.5h174q-284 -250 -431 -553t-147 -669q0 -190 50.5 -362t156.5 -324h-174q-110 152 -162 329.5t-52 372.5z" />
<glyph unicode=")" horiz-adv-x="682" d="M-199 -424q284 250 431 553t147 669q0 190 -50.5 362t-156.5 324h174q110 -152 162 -329.5t52 -372.5q0 -181 -36.5 -350t-110 -321.5t-183 -287t-255.5 -247.5h-174z" />
<glyph unicode="*" horiz-adv-x="797" d="M120 1085l45 134l267 -107l-12 297h136l-13 -295l264 103l45 -132l-282 -73l185 -250l-119 -72l-150 258l-156 -256l-119 72l189 248z" />
<glyph unicode="+" horiz-adv-x="1196" d="M130 608v146h424v428h147v-428h424v-146h-424v-428h-147v428h-424z" />
<glyph unicode="," horiz-adv-x="569" d="M37 -262q57 65 94.5 131t50.5 131h-88l42 219h195l-32 -168q-10 -53 -23.5 -96.5t-30.5 -81t-38 -70.5t-47 -65h-123z" />
<glyph unicode="-" horiz-adv-x="682" d="M105 464l31 160h500l-31 -160h-500z" />
<glyph unicode="." horiz-adv-x="569" d="M80 0l43 219h195l-43 -219h-195z" />
<glyph unicode="/" horiz-adv-x="569" d="M-116 -20l703 1504h158l-700 -1504h-161z" />
<glyph unicode="0" d="M89 465q0 33 1 64.5t4 64.5t8 70t13 81q27 142 67 247.5t88 182t104 126t115 78t121 40t122 11.5q81 0 152.5 -27.5t124 -84.5t83 -145t30.5 -209q0 -63 -5.5 -139.5t-22.5 -159.5q-40 -203 -106 -335.5t-148.5 -210t-176 -108.5t-187.5 -31q-83 0 -154 30t-122.5 90 t-81 151t-29.5 214zM264 438q0 -155 59.5 -233t167.5 -78q76 0 140 27t117.5 91.5t95.5 171.5t73 268q17 85 23.5 157t6.5 131q0 155 -59.5 233t-167.5 78q-76 0 -140 -27t-117.5 -91.5t-95.5 -171.5t-73 -268q-17 -85 -23.5 -157t-6.5 -131z" />
<glyph unicode="1" d="M53 0l30 153h359l208 1070l-361 -223l35 180l377 229h166l-244 -1256h343l-30 -153h-883z" />
<glyph unicode="2" d="M-12 0l24 127q55 93 123 166t142 132.5t150.5 108.5t148 94.5t134 90.5t109.5 96t74 111.5t27 136.5q0 51 -17 91.5t-47.5 69t-73 43.5t-93.5 15q-109 0 -190 -59.5t-118 -178.5l-170 37q24 76 65 140t101 110.5t140.5 72.5t182.5 26q89 0 164 -25t129.5 -71.5t85 -111 t30.5 -144.5q0 -85 -29.5 -157t-79.5 -133.5t-116 -115.5t-139 -104t-149 -98t-146 -98t-129 -103.5t-99 -115.5h727l-29 -153h-932z" />
<glyph unicode="3" d="M48 338l164 48q12 -46 37.5 -91.5t66 -82.5t96.5 -60t129 -23q74 0 130 20.5t93.5 57t57 87t19.5 110.5t-21 104t-58.5 73t-88.5 43.5t-111 14.5h-124l30 156h98q36 0 77.5 4t82 14.5t77.5 30.5t65 51.5t45 77t17 108.5q0 44 -14.5 81t-43 63.5t-69.5 41.5t-95 15 q-119 0 -204.5 -61t-119.5 -172l-178 14q58 186 191.5 276.5t320.5 90.5q93 0 167.5 -23.5t127 -68t80.5 -108t28 -144.5q0 -78 -25.5 -141.5t-73.5 -110.5t-116 -76.5t-153 -40.5l-1 -4q131 -26 204 -104.5t73 -201.5q0 -87 -31.5 -165t-94 -136t-157 -92t-220.5 -34 q-114 0 -198 32.5t-141.5 84.5t-91 115.5t-47.5 125.5z" />
<glyph unicode="4" d="M13 319l27 140l819 950h199l-184 -948h188l-28 -142h-188l-62 -319h-180l62 319h-653zM227 461h467l132 696z" />
<glyph unicode="5" d="M46 309l163 43q11 -40 32 -80.5t57 -72.5t89.5 -52t127.5 -20q78 0 142 22t109.5 67t70 112.5t24.5 157.5q0 67 -20.5 117t-55 83t-81 49.5t-97.5 16.5q-96 0 -163 -28.5t-119 -72.5h-176l194 758h801l-29 -153h-637l-114 -447q19 16 46 32t62 29t77.5 21t91.5 8 q89 0 164 -26.5t130 -77t85.5 -123.5t30.5 -166q0 -119 -35.5 -216t-104.5 -166t-171 -106.5t-235 -37.5q-106 0 -184 25t-132.5 69t-89 104t-53.5 131z" />
<glyph unicode="6" d="M115 464q0 55 5.5 121.5t17.5 129.5q37 188 100 323.5t145 222.5t178.5 128t199.5 41q68 0 128 -15.5t109.5 -49.5t85.5 -86.5t55 -127.5l-166 -36q-25 81 -82 125t-138 44q-78 0 -147.5 -35t-126.5 -105t-101 -174.5t-71 -243.5q60 90 151.5 137.5t204.5 47.5 q83 0 153.5 -26.5t121.5 -76t80 -119.5t29 -156q0 -111 -36 -211t-102.5 -176t-161.5 -121t-213 -45q-99 0 -177 36t-131.5 100.5t-82 153.5t-28.5 194zM288 421q0 -61 16.5 -115t48.5 -94.5t78.5 -63.5t106.5 -23q71 0 130.5 30.5t102.5 84t66.5 126t23.5 156.5 q0 115 -59.5 182.5t-171.5 67.5q-54 0 -114.5 -18.5t-111 -60t-83.5 -108.5t-33 -164z" />
<glyph unicode="7" d="M212 1256l29 153h961l-28 -146q-92 -108 -175.5 -207.5t-157 -196.5t-137 -195t-115 -202.5t-90.5 -218.5t-64 -243h-188q38 191 110 356t168.5 316t214 294t246.5 290h-774z" />
<glyph unicode="8" d="M54 360q0 97 33.5 166t85.5 116t115.5 74t122.5 40v4q-91 38 -141 113.5t-50 178.5q0 87 33 157t95 118.5t152 75t204 26.5q96 0 174 -24t133.5 -68t85.5 -106.5t30 -139.5q0 -69 -22.5 -130t-64 -108t-100.5 -78t-133 -42l-1 -4q50 -15 92 -41t72 -63.5t46.5 -85.5 t16.5 -107q0 -97 -33.5 -179.5t-100 -143t-166.5 -95t-233 -34.5q-114 0 -198 28.5t-139 79.5t-82 120.5t-27 151.5zM239 356q0 -51 17 -95t51.5 -76t87 -50t124.5 -18q69 0 129 20.5t105 60.5t71 99.5t26 138.5q0 44 -15 86.5t-48.5 75.5t-88 53.5t-132.5 20.5 q-82 0 -143.5 -23t-102 -64.5t-61 -99.5t-20.5 -129zM400 1033q0 -40 13 -79.5t43 -71t79.5 -51.5t122.5 -20q87 0 142 26.5t86.5 67t43 89t11.5 93.5q0 98 -65.5 152.5t-192.5 54.5q-61 0 -113 -15.5t-90 -47.5t-59 -81t-21 -117z" />
<glyph unicode="9" d="M70 257l158 45q24 -85 83 -131t150 -46q80 0 147.5 37t122.5 108.5t97 175.5t70 238q-62 -94 -146.5 -148.5t-192.5 -54.5q-97 0 -171 33t-124 88t-75.5 127.5t-25.5 151.5q0 113 37 213t105 174.5t163.5 118t213.5 43.5q95 0 171.5 -31t130.5 -91.5t83.5 -148.5 t29.5 -202q0 -27 -2 -61t-5.5 -70.5t-8.5 -74.5t-12 -72q-37 -188 -101 -321t-145.5 -217t-176.5 -122.5t-193 -38.5q-161 0 -254 72t-129 205zM346 879q0 -63 17 -111t48 -80t74 -48.5t95 -16.5q50 0 103 17t99.5 52t82 88.5t49.5 126.5q11 61 11 110q0 58 -17 107 t-49.5 84.5t-78 55.5t-102.5 20q-72 0 -133 -27.5t-105.5 -79t-69 -127t-24.5 -171.5z" />
<glyph unicode=":" horiz-adv-x="569" d="M81 0l41 207h195l-41 -207h-195zM251 875l41 207h195l-41 -207h-195z" />
<glyph unicode=";" horiz-adv-x="569" d="M38 -262q57 65 94.5 131t50.5 131h-88l40 207h195l-30 -156q-10 -53 -23.5 -96.5t-30.5 -81t-38 -70.5t-47 -65h-123zM265 875l40 207h195l-40 -207h-195z" />
<glyph unicode="&#x3c;" horiz-adv-x="1196" d="M131 571v205l995 418v-154l-858 -366l858 -367v-153z" />
<glyph unicode="=" horiz-adv-x="1196" d="M130 344v148h995v-148h-995zM130 856v148h995v-148h-995z" />
<glyph unicode="&#x3e;" horiz-adv-x="1196" d="M131 154v153l858 367l-858 366v154l995 -418v-205z" />
<glyph unicode="?" d="M159 1048q27 84 70.5 154t109 120.5t155 79t207.5 28.5q101 0 181 -27t135.5 -75t85.5 -113t30 -142q0 -97 -30.5 -165.5t-79 -119t-109 -87.5t-120.5 -72q-42 -24 -81.5 -49.5t-71.5 -55t-54.5 -65.5t-31.5 -82h-175q13 78 45.5 134.5t77 99t96.5 74.5t103 61 q48 27 92 55.5t78 63.5t54 80.5t20 106.5q0 48 -19 88.5t-53.5 69t-82.5 44.5t-107 16q-140 0 -231 -70t-129 -192zM299 0l39 201h195l-39 -201h-195z" />
<glyph unicode="@" horiz-adv-x="2079" d="M194 491q0 139 31.5 267t90.5 238t144 200t192.5 154t235 99t271.5 35q201 0 347 -59t241.5 -159t141.5 -232t46 -279q0 -144 -33.5 -263.5t-92.5 -205.5t-141 -134t-180 -48q-56 0 -95.5 13.5t-64 37t-36 55.5t-11.5 70q0 15 1 36.5t2 33.5h-6q-24 -45 -58.5 -89.5 t-81 -79t-105 -56t-129.5 -21.5q-84 0 -146.5 29t-103 80.5t-60.5 122t-20 153.5q0 120 35.5 230.5t101.5 195t158.5 135.5t206.5 51q60 0 108 -13.5t84.5 -37.5t63.5 -57.5t45 -73.5h6l39 160h156l-116 -506q-19 -84 -28 -144t-9 -109q0 -48 21.5 -71t59.5 -23 q62 0 115.5 40.5t93 111.5t62 167t22.5 208q0 129 -41.5 240t-122 192t-199.5 127t-275 46q-134 0 -247.5 -32t-205.5 -90t-161.5 -138.5t-116.5 -176.5t-71 -205t-24 -225q0 -141 43 -260t125.5 -204.5t204.5 -133.5t279 -48q105 0 196 16.5t167 40.5t136.5 52.5 t103.5 52.5l55 -112q-50 -30 -117.5 -61.5t-150.5 -57.5t-181 -42.5t-209 -16.5q-190 0 -337.5 57.5t-248.5 160.5t-154 245t-53 311zM739 491q0 -120 47.5 -188t146.5 -68q69 0 129.5 31t108.5 82t82.5 117.5t52.5 136.5q9 36 16 76t7 69q0 50 -17 92t-48.5 72t-76 46.5 t-100.5 16.5q-85 0 -150.5 -42.5t-109 -111.5t-66 -155.5t-22.5 -173.5z" />
<glyph unicode="A" horiz-adv-x="1366" d="M-101 0l848 1409h217l292 -1409h-195l-75 412h-639l-240 -412h-208zM431 561h527l-87 473q-8 41 -15.5 80t-12.5 71.5t-8.5 54t-4.5 25.5q-2 -4 -13.5 -26t-29.5 -54.5t-40 -72t-46 -79.5z" />
<glyph unicode="B" horiz-adv-x="1366" d="M63 0l273 1409h510q104 0 187 -22t141.5 -63.5t90 -101.5t31.5 -135q0 -146 -86 -230.5t-253 -113.5q71 -12 125.5 -39.5t91 -67.5t55 -90t18.5 -107q0 -83 -23 -148t-64 -114t-96.5 -82.5t-121 -54.5t-138 -30.5t-146.5 -9.5h-595zM283 153h368q78 0 151.5 12t129.5 44 t90 88t34 145q0 107 -79.5 163t-228.5 56h-366zM411 810h331q181 0 268 65t87 193q0 95 -68.5 141.5t-199.5 46.5h-331z" />
<glyph unicode="C" horiz-adv-x="1479" d="M113 569q0 124 27 236t77 207.5t122 173t162.5 131.5t197.5 83.5t227 29.5q129 0 226 -29.5t166 -77.5t111 -110t61 -128l-180 -55q-15 47 -46 90.5t-79.5 78t-115 55t-153.5 20.5q-146 0 -260 -53.5t-193 -148t-120 -224t-41 -282.5q0 -94 26 -173t77.5 -136.5 t128.5 -89.5t179 -32q90 0 165 24.5t137.5 65t112 93t87.5 108.5l143 -89q-49 -73 -110 -138t-139.5 -113.5t-179 -77t-229.5 -28.5q-148 0 -258.5 46t-183.5 125.5t-109 187t-36 230.5z" />
<glyph unicode="D" horiz-adv-x="1479" d="M63 0l273 1409h408q148 0 271 -39.5t211.5 -117.5t137.5 -193.5t49 -267.5q0 -133 -31.5 -243t-88.5 -198t-135 -153.5t-171 -109.5t-197.5 -65.5t-214.5 -21.5h-512zM283 153h284q147 0 267.5 44t206 126.5t132 201t46.5 268.5q0 120 -36.5 207t-100.5 144t-152 84.5 t-190 27.5h-242z" />
<glyph unicode="E" horiz-adv-x="1366" d="M63 0l273 1409h1049l-30 -156h-858l-88 -452h798l-30 -154h-798l-95 -491h899l-30 -156h-1090z" />
<glyph unicode="F" horiz-adv-x="1251" d="M63 0l273 1409h1011l-30 -156h-820l-102 -524h796l-31 -158h-796l-110 -571h-191z" />
<glyph unicode="G" horiz-adv-x="1593" d="M101 573q0 188 59.5 345.5t169 271t265.5 177t349 63.5q131 0 226.5 -27t162.5 -73t108.5 -106t63.5 -126l-193 -54q-15 47 -43 88.5t-73.5 73t-110.5 50t-153 18.5q-153 0 -271.5 -52.5t-199.5 -146t-122.5 -221t-41.5 -277.5q0 -97 27 -178t82.5 -139.5t140.5 -91.5 t201 -33q91 0 166.5 15t135.5 37.5t105.5 50.5t75.5 53l51 254h-421l32 160h597l-100 -495q-56 -48 -121.5 -90t-144.5 -73t-173.5 -49t-208.5 -18q-162 0 -282.5 43.5t-200 121.5t-119 187t-39.5 241z" />
<glyph unicode="H" horiz-adv-x="1479" d="M63 0l274 1409h191l-116 -596h767l116 596h186l-274 -1409h-186l127 653h-767l-127 -653h-191z" />
<glyph unicode="I" horiz-adv-x="569" d="M81 0l274 1409h191l-274 -1409h-191z" />
<glyph unicode="J" horiz-adv-x="1024" d="M-5 343l168 33q23 -117 79 -179t156 -62q60 0 104 22t75.5 62t52 96.5t33.5 124.5l157 813h-291l30 156h481l-193 -986q-19 -100 -54.5 -182t-91 -140t-134.5 -89.5t-186 -31.5q-159 0 -259.5 93t-126.5 270z" />
<glyph unicode="K" horiz-adv-x="1366" d="M63 0l273 1409h191l-136 -691l140 129l665 562h245l-750 -630l557 -779h-226l-472 674l-190 -129l-106 -545h-191z" />
<glyph unicode="L" d="M63 0l273 1409h191l-243 -1253h712l-30 -156h-903z" />
<glyph unicode="M" horiz-adv-x="1706" d="M63 0l273 1409h236l189 -977q3 -15 8.5 -48.5t10.5 -68.5q6 -40 13 -88q21 44 40 84q17 35 34.5 70.5t29.5 58.5l553 969h256l-273 -1409h-172l180 928q10 51 21 104t21 97q11 51 23 99q-25 -52 -51 -103q-22 -44 -47 -92t-47 -85l-548 -948h-124l-185 948 q-6 30 -13 77.5t-13 92.5q-7 53 -15 110q-8 -56 -17 -111q-8 -47 -16.5 -98t-16.5 -91l-180 -928h-170z" />
<glyph unicode="N" horiz-adv-x="1479" d="M63 0l273 1409h212l534 -1215q6 43 13 91q6 41 14 91.5t18 101.5l181 931h172l-273 -1409h-220l-531 1210q-6 -46 -13 -94q-6 -41 -13.5 -87.5t-15.5 -85.5l-181 -943h-170z" />
<glyph unicode="O" horiz-adv-x="1593" d="M111 573q0 46 4.5 94t14.5 97q30 150 100 273t174.5 210.5t239.5 135t294 47.5q144 0 255 -42.5t187.5 -119.5t116 -183t39.5 -234q-1 -49 -5.5 -101.5t-14.5 -100.5q-30 -154 -101 -277.5t-175.5 -210.5t-239 -134t-291.5 -47q-150 0 -262 43.5t-186.5 122t-112 187.5 t-37.5 240zM302 563q0 -107 28 -187.5t81.5 -134t131 -80t175.5 -26.5q132 0 234.5 37.5t177.5 108t124.5 171t74.5 225.5q9 42 12.5 87t3.5 83q0 107 -29 187.5t-83 134t-131 80.5t-173 27q-131 0 -233 -37t-177.5 -107t-124.5 -171t-75 -229q-9 -43 -13 -86.5t-4 -82.5z " />
<glyph unicode="P" horiz-adv-x="1366" d="M63 0l273 1409h516q116 0 208.5 -27t157.5 -77t100 -122.5t35 -162.5q0 -110 -39.5 -197.5t-113 -148t-179 -93t-237.5 -32.5h-424l-106 -549h-191zM390 700h387q192 0 287 78t95 233q0 65 -22.5 111t-63.5 76t-98.5 44t-127.5 14h-349z" />
<glyph unicode="Q" horiz-adv-x="1593" d="M101 573q0 46 4.5 94t14.5 97q30 150 100 273t174.5 210.5t239.5 135t294 47.5q144 0 255 -42.5t187.5 -119.5t116 -183t39.5 -234q-1 -49 -5.5 -101.5t-14.5 -100.5q-27 -138 -87.5 -252.5t-148.5 -199.5t-201.5 -138.5t-246.5 -70.5q9 -66 27 -110.5t45 -71.5t63 -38.5 t81 -11.5q28 0 63 4t60 9l-18 -134q-38 -11 -79 -16.5t-90 -5.5q-85 0 -144.5 25.5t-98.5 73t-61 116t-32 155.5q-134 9 -235 56.5t-168 124.5t-100.5 181.5t-33.5 227.5zM292 563q0 -107 28 -187.5t81.5 -134t131 -80t175.5 -26.5q132 0 234.5 37.5t177.5 108t124.5 171 t74.5 225.5q9 42 12.5 87t3.5 83q0 107 -29 187.5t-83 134t-131 80.5t-173 27q-131 0 -233 -37t-177.5 -107t-124.5 -171t-75 -229q-9 -43 -13 -86.5t-4 -82.5z" />
<glyph unicode="R" horiz-adv-x="1479" d="M63 0l273 1409h612q104 0 190 -25.5t147.5 -73.5t96 -116.5t34.5 -154.5q0 -188 -108 -298t-319 -139l268 -602h-206l-243 585h-441l-113 -585h-191zM397 736h460q181 0 273 75.5t92 212.5q0 112 -74.5 172t-222.5 60h-427z" />
<glyph unicode="S" horiz-adv-x="1366" d="M58 338l177 37q13 -62 41 -108t75 -76.5t116 -45.5t163 -15q98 0 176 13.5t132.5 45t83.5 82t29 125.5q0 51 -17 87t-59 64.5t-113.5 54t-179.5 55.5q-88 24 -165.5 53.5t-135.5 73t-92 105.5t-34 152q0 105 47.5 178.5t127 120.5t182 68.5t212.5 21.5q121 0 211.5 -22 t154 -61.5t101.5 -94.5t53 -120l-173 -51q-15 48 -42 86t-69 64.5t-100.5 40.5t-136.5 14q-104 0 -175.5 -17.5t-116 -49t-64.5 -75t-20 -94.5q0 -54 20.5 -89.5t62.5 -60.5t106.5 -45.5t152.5 -44.5q87 -24 169.5 -53t146.5 -73.5t102.5 -110.5t38.5 -165q0 -206 -155 -317 t-475 -111q-130 0 -227.5 23.5t-165.5 69t-108.5 112t-56.5 153.5z" />
<glyph unicode="T" horiz-adv-x="1251" d="M184 1253l30 156h1158l-30 -156h-484l-244 -1253h-190l244 1253h-484z" />
<glyph unicode="U" horiz-adv-x="1479" d="M153 431q0 21 2 48.5t5.5 55.5t7.5 54.5t8 45.5l150 774h191l-162 -843q-7 -36 -12 -74.5t-5 -68.5q0 -74 25 -128t69 -89.5t105 -53t133 -17.5q87 0 161.5 22t134 70t102 125.5t63.5 188.5l168 868h190l-170 -879q-28 -141 -85.5 -244.5t-142.5 -171.5t-195 -101 t-242 -33q-104 0 -195.5 27t-159.5 83t-107 141t-39 200z" />
<glyph unicode="V" horiz-adv-x="1366" d="M177 1409h194l198 -992q7 -45 13 -89.5t11 -79.5q6 -41 11 -80q19 37 41 78q19 35 42.5 79.5t49.5 91.5l580 992h208l-848 -1409h-198z" />
<glyph unicode="W" horiz-adv-x="1933" d="M177 1409h197l79 -895q5 -63 8 -124.5t5 -111.5q2 -58 3 -110q29 69 58 136q12 29 25.5 59.5t26.5 60.5t25.5 57.5t23.5 50.5l415 877h183l75 -877q2 -22 4 -50t3.5 -57.5t3 -60t2.5 -59.5q3 -67 4 -137q1 0 15.5 34.5t36.5 86.5t48.5 112.5t51.5 112.5l423 895h201 l-688 -1409h-223l-71 895q-1 19 -2.5 43t-3 50.5t-3 54t-2.5 52.5q-3 60 -5 124q-24 -63 -49 -124q-21 -52 -44.5 -107t-41.5 -93l-419 -895h-223z" />
<glyph unicode="X" horiz-adv-x="1366" d="M-39 0l654 746l-340 663h199l270 -551l475 551h211l-600 -676l368 -733h-199l-303 606l-524 -606h-211z" />
<glyph unicode="Y" horiz-adv-x="1366" d="M213 1409h196l306 -674l560 674h214l-704 -825l-113 -584h-190l115 584z" />
<glyph unicode="Z" horiz-adv-x="1251" d="M-40 0l27 143l1054 1110h-765l30 156h1002l-27 -139l-1054 -1114h885l-30 -156h-1122z" />
<glyph unicode="[" horiz-adv-x="569" d="M-39 -425l370 1909h407l-25 -129h-233l-321 -1651h233l-25 -129h-406z" />
<glyph unicode="\" horiz-adv-x="569" d="M146 1484h148l178 -1504h-152z" />
<glyph unicode="]" horiz-adv-x="569" d="M-169 -425l25 129h232l321 1651h-233l25 129h407l-371 -1909h-406z" />
<glyph unicode="^" horiz-adv-x="961" d="M40 673l368 736h203l370 -736h-164l-309 633l-306 -633h-162z" />
<glyph unicode="_" d="M-160 -174h1178v-76h-1178v76z" />
<glyph unicode="`" horiz-adv-x="682" d="M130 1479l5 29h207l161 -287l-3 -20h-88z" />
<glyph unicode="a" d="M46 278q0 81 23.5 140t64 101t95 68.5t116 41.5t127.5 21t129 7l232 3l7 36q5 25 8.5 48t3.5 43q0 91 -53 134.5t-147 43.5q-49 0 -91.5 -7.5t-76 -27t-59 -53t-41.5 -84.5l-178 29q19 62 52 113.5t87 88.5t131.5 57.5t185.5 20.5q89 0 158 -22t116 -61t71.5 -93 t24.5 -119q0 -31 -5.5 -74.5t-13.5 -82.5l-74 -378q-5 -22 -8 -45t-3 -43q0 -37 19.5 -55t61.5 -18q15 0 30.5 2t29.5 5l-14 -112q-29 -7 -62.5 -11.5t-65.5 -4.5q-93 0 -135.5 38.5t-42.5 114.5q0 15 2 32.5t3 31.5h-6q-35 -53 -72.5 -95t-83 -71.5t-101.5 -45t-130 -15.5 q-78 0 -136.5 25t-98.5 66.5t-60 95.5t-20 111zM237 286q0 -32 10.5 -62.5t32.5 -54t54.5 -38t76.5 -14.5q87 0 152 30t111 74t72.5 95.5t35.5 94.5l27 125l-199 -4q-40 -1 -83 -4t-84.5 -12.5t-79 -25.5t-65.5 -43.5t-44.5 -66.5t-16.5 -94z" />
<glyph unicode="b" d="M29 0q3 9 8 30.5t11.5 51.5t14.5 66t15 75l245 1261h180l-83 -423q-5 -29 -11.5 -55t-11.5 -45q-6 -22 -11 -40h4q36 47 73.5 81t80 56.5t91.5 33t109 10.5q80 0 142 -25t104 -71t64 -111.5t22 -146.5q0 -50 -4.5 -109.5t-16.5 -122.5q-27 -142 -71 -243.5t-106 -166.5 t-142 -95.5t-179 -30.5q-123 0 -200 52t-109 146h-3q-5 -26 -12 -55.5t-13.5 -55.5t-11 -44.5t-6.5 -22.5h-173zM298 377q0 -64 17 -113.5t48.5 -83t76 -50.5t98.5 -17q62 0 112 18.5t90.5 64t71.5 122t53 192.5q23 121 23 206q0 123 -47 185t-149 62q-64 0 -121.5 -19 t-106.5 -65.5t-86.5 -125.5t-60.5 -199q-19 -98 -19 -177z" />
<glyph unicode="c" horiz-adv-x="1024" d="M67 395q0 40 3.5 87t12.5 92q22 111 56.5 193t77 140.5t92 96.5t102 59.5t107 30t107.5 8.5q89 0 156.5 -23t114.5 -65t73.5 -100.5t31.5 -129.5l-177 -25q-3 45 -17 82t-39.5 63.5t-62.5 41.5t-86 15q-69 0 -124 -20t-98.5 -65t-74.5 -117.5t-52 -177.5q-9 -48 -14 -101 t-5 -91q0 -127 51.5 -197t166.5 -70q56 0 101 16.5t80 46.5t62 72.5t46 94.5l156 -49q-28 -75 -68.5 -134.5t-96 -101.5t-126.5 -64.5t-158 -22.5q-103 0 -178.5 31t-124 86.5t-72 131.5t-23.5 166z" />
<glyph unicode="d" d="M69 333q0 45 4.5 107t16.5 125q27 142 71 243.5t106 166.5t142 95.5t179 30.5q123 0 200.5 -52t109.5 -146h5q2 10 6 33t8.5 48.5t8.5 48.5t5 32l82 419h180l-245 -1261q-8 -39 -14.5 -75t-11.5 -66t-8 -51.5t-4 -30.5h-172q0 20 5.5 64t15.5 96h-5q-36 -47 -73.5 -81 t-79.5 -56.5t-91 -33t-109 -10.5q-80 0 -142 25t-104 71t-64 111.5t-22 146.5zM257 365q0 -123 47 -185t149 -62q64 0 121.5 19t106.5 65.5t86.5 125.5t60.5 199q19 98 19 177q0 65 -17 114t-48.5 82.5t-76 50.5t-98.5 17q-61 0 -111.5 -18.5t-91 -64t-71 -122t-53.5 -192.5 q-23 -121 -23 -206z" />
<glyph unicode="e" d="M69 405q0 158 42.5 287t118 220t178 140.5t222.5 49.5q110 0 191 -29t135 -81t80.5 -124.5t26.5 -159.5q0 -21 -1.5 -46t-4.5 -52t-7.5 -54.5t-10.5 -52.5h-783q-5 -28 -6.5 -56.5t-2.5 -56.5q0 -133 66.5 -204t200.5 -71q56 0 102 14.5t83.5 39t66 57t47.5 68.5l138 -63 q-25 -45 -61 -89.5t-89.5 -80.5t-128.5 -58.5t-179 -22.5q-100 0 -179 28.5t-133.5 83t-83 133.5t-28.5 180zM280 641h600q2 20 3 37.5t1 34.5q0 66 -18 114.5t-51 80t-79 46.5t-102 15q-48 0 -101 -14.5t-101.5 -51.5t-88.5 -100.5t-63 -161.5z" />
<glyph unicode="f" horiz-adv-x="569" d="M69 0l185 951h-152l26 131h152l23 122q12 59 31 110t54.5 89t91.5 59.5t142 21.5q32 0 65.5 -3t58.5 -9l-26 -137q-9 2 -20.5 3t-24.5 2.5t-25 2t-21 0.5q-38 0 -63.5 -11t-42 -32t-26.5 -51.5t-18 -69.5l-19 -97h211l-26 -131h-211l-185 -951h-180z" />
<glyph unicode="g" d="M4 -173l163 42q17 -76 75.5 -116.5t158.5 -40.5q72 0 127 18.5t94.5 56.5t66 97.5t42.5 142.5q5 26 11 56t11 56l12 62h-2q-28 -40 -59.5 -78t-72.5 -67t-95 -46.5t-126 -17.5q-79 0 -142 27.5t-107 76t-67.5 116t-23.5 147.5q0 49 5.5 103.5t17.5 117.5 q50 261 169.5 391t325.5 130q57 0 108 -13.5t91.5 -40t70 -64.5t42.5 -86h2q5 25 12.5 56t14.5 58.5t13 47.5t8 23h171q-2 -9 -7 -30.5t-12 -51.5t-14.5 -66.5t-15.5 -75.5l-161 -827q-21 -107 -58 -191.5t-98 -143.5t-148.5 -90t-209.5 -31q-93 0 -162 18.5t-116.5 51.5 t-75 79.5t-39.5 102.5zM259 373q0 -121 52.5 -184.5t154.5 -63.5q54 0 109.5 23t105 73t89 129t61.5 191q8 42 12 86.5t4 76.5q0 67 -18 116.5t-50.5 82.5t-76.5 49t-95 16q-62 0 -112.5 -18.5t-90.5 -63t-70 -119t-52 -187.5q-11 -59 -17 -113t-6 -94z" />
<glyph unicode="h" d="M34 0l288 1484h180l-75 -386q-6 -33 -13.5 -66t-14.5 -60.5t-12 -47.5t-7 -27h3q34 47 70 85t79.5 64.5t96 40.5t119.5 14q148 0 222.5 -73t74.5 -211q0 -36 -6.5 -81t-14.5 -83l-127 -653h-181l126 645q8 39 13 79.5t5 70.5q0 79 -42 123t-137 44q-64 0 -120.5 -25.5 t-102.5 -72t-78.5 -112t-48.5 -146.5l-118 -606h-179z" />
<glyph unicode="i" horiz-adv-x="455" d="M33 0l210 1082h180l-211 -1082h-179zM287 1312l34 172h180l-34 -172h-180z" />
<glyph unicode="j" horiz-adv-x="455" d="M-229 -411l23 136q13 -2 38 -5t45 -3q59 0 89 42t47 134l231 1189h180l-237 -1216q-12 -62 -31.5 -115t-52.5 -92t-82.5 -61.5t-120.5 -22.5q-34 0 -68.5 4.5t-60.5 9.5zM289 1312l33 172h180l-33 -172h-180z" />
<glyph unicode="k" horiz-adv-x="1024" d="M34 0l288 1484h180l-179 -917l204 190l361 325h222l-530 -465l336 -617h-195l-268 502l-168 -124l-72 -378h-179z" />
<glyph unicode="l" horiz-adv-x="455" d="M33 0l288 1484h180l-289 -1484h-179z" />
<glyph unicode="m" horiz-adv-x="1706" d="M34 0l166 851q7 34 13.5 71.5t12 71t9 57.5t4.5 31h170q0 -5 -3 -27t-7.5 -50.5t-9 -58t-8.5 -49.5h3q30 47 62 85t70 64.5t84.5 40.5t105.5 14q121 0 192 -59.5t85 -172.5q32 50 66 92t75.5 73.5t92 49t114.5 17.5q135 0 207.5 -73t72.5 -211q0 -36 -6.5 -81t-14.5 -83 l-127 -653h-178l124 634q4 20 8.5 44t8 48t6 45.5t2.5 36.5q0 75 -38 114.5t-124 39.5q-57 0 -108.5 -25t-92.5 -71t-71 -112t-44 -147l-118 -607h-178l124 634q4 20 8.5 44t8 48t6 45.5t2.5 36.5q0 75 -38 114.5t-124 39.5q-57 0 -108.5 -25.5t-92.5 -72t-71 -113 t-44 -147.5l-118 -604h-179z" />
<glyph unicode="n" d="M34 0l166 851q7 34 13.5 71.5t12 71t9 57.5t4.5 31h170q0 -5 -3 -27t-7.5 -50.5t-9 -58t-8.5 -49.5h3q34 47 70 85t79.5 64.5t96 40.5t119.5 14q148 0 222.5 -73t74.5 -211q0 -36 -6.5 -81t-14.5 -83l-127 -653h-181l126 645q8 39 13 79.5t5 70.5q0 79 -42 123t-137 44 q-64 0 -120.5 -25.5t-102.5 -72t-78.5 -112t-48.5 -146.5l-118 -606h-180z" />
<glyph unicode="o" d="M67 419q1 47 5.5 97t16.5 104q29 126 80 216.5t121 149.5t158.5 87t193.5 28q106 0 186.5 -28t135 -82t82.5 -131.5t28 -176.5q0 -52 -6 -104.5t-20 -111.5q-30 -132 -83.5 -225t-125.5 -151t-160 -84.5t-188 -26.5q-96 0 -174 29.5t-133.5 86t-86 138t-30.5 185.5z M252 416q0 -82 19 -140t52.5 -94t79 -52.5t99.5 -16.5t106.5 12t99.5 50.5t86.5 109.5t66.5 188q14 60 19.5 110t7.5 100q0 77 -17 131t-49.5 88.5t-78.5 50.5t-103 16q-53 0 -106.5 -12.5t-102 -50.5t-88.5 -108t-67 -186q-13 -55 -18.5 -104.5t-5.5 -91.5z" />
<glyph unicode="p" d="M-51 -425l249 1286q8 39 14 75t10.5 65.5t7 50.5t3.5 30h167q0 -8 -1 -26t-3.5 -40.5t-5.5 -47.5t-7 -47h4q36 47 73.5 81t80 56.5t91.5 33t109 10.5q80 0 142 -25t104 -71t64 -111.5t22 -146.5q0 -50 -4.5 -109.5t-16.5 -122.5q-27 -142 -71 -243.5t-106 -166.5 t-142 -95.5t-179 -30.5q-123 0 -200.5 52t-109.5 146h-5q0 -2 -2 -19.5t-6 -43.5t-9.5 -57t-11.5 -60l-82 -423h-179zM295 377q0 -64 17 -113.5t48.5 -83t76 -50.5t98.5 -17q62 0 112 18.5t90.5 64t71.5 122t53 192.5q23 121 23 206q0 123 -47 185t-149 62q-64 0 -121.5 -19 t-106.5 -65.5t-86.5 -125.5t-60.5 -199q-19 -98 -19 -177z" />
<glyph unicode="q" d="M69 333q0 45 4.5 107t16.5 125q27 142 71 243.5t106 166.5t142 95.5t179 30.5q123 0 200.5 -52t109.5 -146h5q5 25 12 55.5t14 58t13 49.5t10 30h173q-5 -17 -22 -89t-43 -206l-238 -1226h-180l85 439q5 26 10.5 52t10.5 47q5 25 11 47h-4q-36 -47 -73.5 -81t-80 -56.5 t-91.5 -33t-109 -10.5q-80 0 -142 25t-104 71t-64 111.5t-22 146.5zM257 365q0 -123 47 -185t149 -62q64 0 121.5 19t106.5 65.5t86.5 125.5t60.5 199q19 98 19 177q0 65 -17 114t-48.5 82.5t-76 50.5t-98.5 17q-61 0 -111.5 -18.5t-91 -64t-71 -122t-53.5 -192.5 q-23 -121 -23 -206z" />
<glyph unicode="r" horiz-adv-x="682" d="M34 0l162 830q7 35 13 70t11.5 68t10.5 62.5t8 51.5h170q-3 -22 -7.5 -52t-9.5 -61t-9.5 -59.5t-8.5 -48.5h4q31 62 61.5 107.5t63.5 75t70.5 44t82.5 14.5q11 0 24 -1.5t26.5 -3.5t25.5 -4.5t19 -4.5l-33 -150q-17 5 -40.5 9t-49.5 4q-64 0 -115 -37t-89.5 -94 t-63.5 -125.5t-36 -130.5l-110 -564h-180z" />
<glyph unicode="s" horiz-adv-x="1024" d="M5 223l147 56q15 -40 38.5 -71.5t58 -53t82 -32.5t110.5 -11q64 0 117.5 10.5t92 33.5t60 59t21.5 87q0 40 -19 68.5t-53.5 50t-84 40t-110.5 37.5q-65 21 -123.5 46t-103 60t-71 82.5t-26.5 111.5q0 82 35.5 139.5t96 93.5t141 52.5t170.5 16.5q82 0 150 -14t119 -44.5 t84 -79t45 -117.5l-163 -25q-22 79 -83 114t-164 35q-53 0 -99.5 -8t-81.5 -26t-55.5 -47t-20.5 -70t19 -68.5t53.5 -48.5t83 -37.5t108.5 -35.5q57 -18 115.5 -42t105.5 -59.5t77 -86t30 -122.5q0 -85 -34 -148.5t-96.5 -105.5t-151.5 -62.5t-200 -20.5q-93 0 -163 16 t-120.5 46.5t-84 76t-52.5 104.5z" />
<glyph unicode="t" horiz-adv-x="569" d="M93 166q0 32 5 68.5t10 61.5l126 655h-125l26 131h127l105 242h120l-47 -242h200l-26 -131h-200l-125 -645q-4 -20 -8 -49t-4 -46q0 -42 21 -65t69 -23q26 0 48.5 3.5t51.5 10.5l-19 -133q-37 -9 -81 -16.5t-92 -7.5q-85 0 -133.5 51t-48.5 135z" />
<glyph unicode="u" d="M86 265q0 36 6.5 81t14.5 83l127 653h181l-126 -645q-8 -39 -13 -79.5t-5 -70.5q0 -79 42 -123t137 -44q64 0 120.5 25.5t102.5 72t78.5 112t48.5 146.5l118 606h180l-166 -851q-7 -34 -13.5 -71.5t-12 -71t-9 -57.5t-4.5 -31h-170q0 5 3 27t7.5 50.5t9 58t8.5 49.5h-3 q-34 -47 -70 -85t-79.5 -64.5t-96 -40.5t-119.5 -14q-148 0 -222.5 73t-74.5 211z" />
<glyph unicode="v" horiz-adv-x="1024" d="M112 1082h187l101 -704q3 -22 6.5 -53.5t6.5 -65.5t5.5 -65.5t4.5 -52.5q11 21 26 52.5t31.5 64.5t33 64.5t28.5 53.5l384 706h196l-615 -1082h-213z" />
<glyph unicode="w" horiz-adv-x="1479" d="M102 1082h178l40 -735q1 -12 2 -39.5t2 -58t2 -59t1 -41.5q15 36 30 71q13 30 26.5 63t24.5 56l341 743h193l44 -743q3 -54 4.5 -104t1.5 -86q15 36 31 71q14 30 28.5 64t27.5 63l334 735h176l-521 -1082h-209l-37 698q-1 20 -2 59t-2 79q-1 47 -2 98q-18 -45 -36 -89 q-16 -38 -33.5 -79t-31.5 -72l-313 -694h-208z" />
<glyph unicode="x" horiz-adv-x="1024" d="M-82 0l492 556l-264 526h189l193 -421l350 421h206l-469 -524l281 -558h-190l-209 444l-380 -444h-199z" />
<glyph unicode="y" horiz-adv-x="1024" d="M-116 -411l31 134q17 -3 38.5 -5.5t38.5 -2.5q95 0 167.5 64t142.5 186l27 47l-217 1070h183l112 -598q6 -32 13 -74t13 -83.5t10.5 -77t5.5 -53.5q10 22 26 53.5t35.5 67t40 73t39.5 72.5l338 620h199l-626 -1082q-55 -95 -106 -173t-107 -134t-121.5 -87t-150.5 -31 q-33 0 -67.5 3.5t-64.5 10.5z" />
<glyph unicode="z" horiz-adv-x="1024" d="M-44 0l27 137l797 806h-601l27 139h824l-27 -137l-799 -806h679l-27 -139h-900z" />
<glyph unicode="{" horiz-adv-x="684" d="M21 466l25 127q51 2 94 16t76 42t56 72t35 106l70 362q28 143 103.5 218t217.5 75h135l-25 -129h-63q-49 0 -83.5 -13t-59 -39t-40.5 -66.5t-27 -96.5l-69 -356q-10 -50 -33 -92t-55 -74t-72 -54t-83 -32v-2q69 -17 109.5 -67t40.5 -128q0 -27 -6 -59l-61 -319 q-3 -15 -5 -31.5t-3.5 -33t-3 -31.5t-1.5 -26q-2 -60 33.5 -95.5t112.5 -35.5h48l-25 -129h-96q-59 0 -104.5 19t-76 52t-46 79t-15.5 100q0 12 0.5 27.5t2 31.5t3.5 31.5t4 26.5l56 287q9 44 9 77q0 83 -46.5 119.5t-131.5 40.5z" />
<glyph unicode="|" horiz-adv-x="532" d="M213 -454v1938h166v-1938h-166z" />
<glyph unicode="}" horiz-adv-x="684" d="M-159 -425l25 129h63q49 0 83.5 13t59 39t40.5 66.5t27 96.5l69 356q10 50 33 92t55 74t72 54t83 32v2q-69 17 -109.5 67t-40.5 128q0 28 6 59l61 319q3 15 5 31.5t3.5 33t3 31.5t1.5 26q2 60 -33.5 95.5t-112.5 35.5h-48l25 129h96q59 0 104.5 -19t76 -52t46 -79 t15.5 -100q0 -12 -0.5 -27.5t-2 -31.5t-3.5 -31.5t-4 -26.5l-56 -287q-9 -43 -9 -77q0 -83 46.5 -119.5t131.5 -40.5l-25 -127q-51 -2 -94 -16t-76 -42t-56 -72t-35 -106l-70 -362q-28 -143 -103.5 -218t-217.5 -75h-135z" />
<glyph unicode="~" horiz-adv-x="1196" d="M122 580v143q50 38 116 61t147 23q41 0 80.5 -6.5t78 -16.5t76 -23t74.5 -26q21 -7 46 -15t50.5 -15t51 -11t48.5 -4q69 0 130.5 25t113.5 67v-149q-31 -22 -61 -37.5t-60.5 -25t-64.5 -13.5t-74 -4q-69 0 -141.5 22t-145.5 48q-129 45 -217 45q-38 0 -70.5 -6 t-62.5 -17.5t-58 -27.5t-57 -37z" />
<glyph unicode="&#xa1;" horiz-adv-x="682" d="M64 -326l220 1012h148l-172 -1012h-196zM302 882l40 201h194l-40 -201h-194z" />
<glyph unicode="&#xa2;" d="M158 551q0 40 3.5 87t12.5 92q21 106 53 186t71.5 137.5t85.5 96t95.5 62t101 33.5t102.5 12l28 152h124l-29 -158q68 -10 119.5 -36.5t87 -67t55.5 -93t24 -114.5l-177 -25q-3 45 -17 82t-39.5 63.5t-62.5 41.5t-86 15q-69 0 -124 -20t-98.5 -65t-74.5 -117.5 t-52 -177.5q-9 -48 -14 -101t-5 -91q0 -127 51.5 -197t166.5 -70q56 0 101 16.5t80 46.5t62 72.5t46 94.5l156 -49q-27 -72 -65 -130t-89 -99.5t-116.5 -65.5t-146.5 -28l-32 -167h-124l34 173q-81 12 -139 47.5t-95.5 89.5t-55.5 123t-18 149z" />
<glyph unicode="&#xa3;" d="M-12 0l29 154q97 46 155.5 124.5t82.5 202.5l28 144h-186l25 129h186l55 280q18 92 52 165.5t89 124.5t132 78.5t180 27.5q70 0 131 -15t108 -44.5t79 -72t44 -98.5l-164 -50q-20 64 -76 98t-129 34q-114 0 -177.5 -57.5t-87.5 -182.5l-56 -288h408l-25 -129h-408 l-27 -147q-10 -55 -31 -105t-51.5 -92t-68.5 -74.5t-83 -53.5h464q103 0 167.5 42.5t90.5 138.5l151 -24q-37 -152 -137 -231t-250 -79h-700z" />
<glyph unicode="&#xa4;" d="M141 330l102 102q-37 54 -57.5 117.5t-20.5 134.5t20.5 134.5t57.5 117.5l-100 100l104 103l99 -101q54 39 117.5 60.5t136.5 21.5q71 0 134 -21t117 -59l97 97l104 -105l-96 -96q37 -54 58.5 -117.5t21.5 -134.5t-22 -135t-60 -117l100 -100l-102 -105l-101 101 q-54 -37 -117 -57.5t-134 -20.5q-72 0 -136 21t-116 59l-105 -105zM319 686q0 -58 22.5 -109t60.5 -89t89 -60t109 -22q57 0 108 22t89.5 60t60.5 89t22 109t-22 109t-60.5 89.5t-89.5 60.5t-108 22q-58 0 -109 -22t-89 -60.5t-60.5 -89.5t-22.5 -109z" />
<glyph unicode="&#xa5;" d="M45 303l25 127h381l32 154h-383l24 125h320l-285 700h193l246 -647l500 647h205l-558 -700h321l-24 -125h-383l-30 -154h383l-25 -127h-383l-59 -303h-178l59 303h-381z" />
<glyph unicode="&#xa6;" horiz-adv-x="532" d="M213 324h166v-779h-166v779zM213 707v778h166v-778h-166z" />
<glyph unicode="&#xa7;" d="M-34 71l147 56q15 -40 38.5 -71.5t58 -53t82 -32.5t110.5 -11q64 0 117.5 10.5t92 33.5t60 59t21.5 87q0 40 -19.5 69.5t-54.5 52t-84 41t-108 36.5q-65 20 -124 48t-103.5 67t-71 91t-26.5 119q0 61 20.5 108t57 81.5t87.5 58t111 36.5q-60 38 -97 92.5t-37 132.5 q0 82 35.5 139.5t96.5 93.5t143.5 52.5t175.5 16.5q79 0 145.5 -14t116.5 -44.5t83 -79t45 -117.5l-163 -25q-22 79 -81.5 114t-152.5 35q-58 0 -107.5 -8.5t-85.5 -27.5t-56.5 -50t-20.5 -77q0 -36 20 -63.5t55 -50t83 -41t104 -36.5q57 -18 115.5 -43t106.5 -62.5 t78 -91.5t30 -129q0 -61 -19 -108t-55 -81.5t-86.5 -58t-113.5 -37.5q57 -36 94.5 -89.5t37.5 -133.5q0 -85 -34 -148.5t-97 -105.5t-152.5 -62.5t-201.5 -20.5q-91 0 -160.5 16t-120 46.5t-84 76t-52.5 104.5zM276 688q0 -47 24.5 -81.5t63.5 -60t88 -44.5t98 -34 q57 2 108.5 14t91 35.5t62.5 59.5t23 85q0 48 -24 82.5t-65 60t-96 44.5t-117 37q-56 -3 -103.5 -18t-81.5 -40.5t-53 -61t-19 -78.5z" />
<glyph unicode="&#xa8;" horiz-adv-x="682" d="M137 1219l35 184h175l-35 -184h-175zM521 1219l35 184h173l-35 -184h-173z" />
<glyph unicode="&#xa9;" horiz-adv-x="1509" d="M63 707q0 100 26 192t73 172.5t113 146.5t146.5 113t172.5 73t192 26q150 0 281.5 -57t230 -155t155 -229.5t56.5 -281.5q0 -100 -26 -192.5t-73 -173t-112.5 -146t-146 -112.5t-173 -73t-192.5 -26q-99 0 -191.5 26t-172.5 73t-146.5 112.5t-113.5 146t-73 173 t-26 192.5zM158 707q0 -131 49.5 -245.5t135 -200t199.5 -134.5t244 -49q131 0 245.5 49t200.5 134.5t135.5 200t49.5 245.5q0 130 -49.5 244t-135.5 199.5t-200.5 135t-245.5 49.5q-130 0 -244 -49.5t-199.5 -135t-135 -199.5t-49.5 -244zM401 709q0 98 24 176t72.5 133.5 t121.5 85t171 29.5q75 0 131 -18t96 -47.5t67.5 -67t45.5 -76.5l-114 -33q-12 26 -31 51t-46.5 44t-63.5 30.5t-83 11.5q-69 0 -118.5 -23t-81.5 -64.5t-47 -100.5t-15 -131t16.5 -132t50 -103t83.5 -67t117 -24q49 0 86.5 13.5t65.5 36t47.5 50.5t33.5 56l115 -35 q-22 -43 -51 -83.5t-70 -72t-96.5 -50.5t-130.5 -19q-101 0 -175.5 32t-123.5 89t-73 136t-24 173z" />
<glyph unicode="&#xaa;" horiz-adv-x="758" d="M89 858q0 78 31.5 126.5t83 76.5t117 39t132.5 12l179 4l12 60q6 30 6 53q0 53 -34 77.5t-93 24.5q-33 0 -62.5 -6.5t-53.5 -22.5t-41.5 -42t-26.5 -64l-132 17q13 49 37.5 89t63.5 69t92.5 45t124.5 16q127 0 196.5 -53.5t69.5 -145.5q0 -7 -1 -18t-2.5 -22.5l-3 -23 t-3.5 -20.5l-53 -275q-6 -31 -6 -53q0 -29 11.5 -42t36.5 -13q12 0 23.5 2.5t20.5 5.5l-15 -104q-17 -6 -35.5 -9.5t-40.5 -3.5q-36 0 -62 8.5t-42.5 23.5t-24.5 34.5t-8 41.5q0 6 1 19t3 21h-4q-27 -35 -55.5 -63.5t-61.5 -48.5t-72 -31t-86 -11q-54 0 -95 15.5t-69.5 43 t-43 65.5t-14.5 83zM243 865q0 -20 6 -38.5t19.5 -33t34 -23t49.5 -8.5q46 0 88.5 17.5t76 47t56.5 67.5t31 78l10 52l-139 -4q-43 -1 -85 -7.5t-74.5 -23t-52.5 -46.5t-20 -78z" />
<glyph unicode="&#xab;" d="M76 506l12 63l408 371h157l-6 -38l-407 -372l265 -367l-5 -22h-159zM551 506l12 63l410 371h158l-6 -37l-410 -372l268 -367l-5 -23h-160z" />
<glyph unicode="&#xac;" horiz-adv-x="1196" d="M100 608v146h995v-574h-145v428h-850z" />
<glyph unicode="&#xad;" horiz-adv-x="682" d="M105 464l31 160h500l-31 -160h-500z" />
<glyph unicode="&#xae;" horiz-adv-x="1509" d="M63 707q0 100 26 192t73 172.5t113 146.5t146.5 113t172.5 73t192 26q150 0 281.5 -57t230 -155t155 -229.5t56.5 -281.5q0 -100 -26 -192.5t-73 -173t-112.5 -146t-146 -112.5t-173 -73t-192.5 -26q-99 0 -191.5 26t-172.5 73t-146.5 112.5t-113.5 146t-73 173 t-26 192.5zM158 707q0 -131 49.5 -245.5t135 -200t199.5 -134.5t244 -49q131 0 245.5 49t200.5 134.5t135.5 200t49.5 245.5q0 130 -49.5 244t-135.5 199.5t-200.5 135t-245.5 49.5q-130 0 -244 -49.5t-199.5 -135t-135 -199.5t-49.5 -244zM500 289v831h307q142 0 217.5 -63 t75.5 -174q0 -102 -52 -163.5t-137 -80.5l221 -350h-145l-199 336h-161v-336h-127zM627 721h182q80 0 122 42.5t42 117.5q0 69 -47.5 105t-128.5 36h-170v-301z" />
<glyph unicode="&#xaf;" horiz-adv-x="1131" d="M-17 1503v117h1165v-117h-1165z" />
<glyph unicode="&#xb0;" horiz-adv-x="819" d="M196 1145q0 60 23 112t62 90.5t91 60.5t111 22t111.5 -22t91.5 -60.5t61.5 -90.5t22.5 -112q0 -59 -22.5 -111t-61.5 -90.5t-91.5 -61t-111.5 -22.5t-111 22.5t-91 61t-62 90.5t-23 111zM305 1145q0 -37 14 -69.5t38 -57t56.5 -39t69.5 -14.5q38 0 70.5 14.5t56.5 39 t37.5 57t13.5 69.5q0 38 -13.5 70.5t-37.5 57t-56.5 38.5t-70.5 14q-37 0 -69.5 -14t-56.5 -38.5t-38 -57t-14 -70.5z" />
<glyph unicode="&#xb1;" horiz-adv-x="1124" d="M65 0v145h995v-145h-995zM65 680v145h424v394h147v-394h424v-145h-424v-395h-147v395h-424z" />
<glyph unicode="&#xb2;" horiz-adv-x="682" d="M30 563l18 103q29 46 65 83.5t75.5 68.5t81 57t81.5 50q51 30 97 58t81.5 59t56 67.5t20.5 82.5q0 51 -34 87t-99 36q-32 0 -61.5 -9t-54 -27t-42.5 -44.5t-26 -60.5l-125 15q13 52 38.5 95t64.5 73.5t92.5 47t120.5 16.5q63 0 112 -17t82 -46t50.5 -68t17.5 -84 q0 -66 -28 -118t-73 -94.5t-101 -77.5t-113 -68q-35 -20 -69 -41t-63.5 -42t-53 -43.5t-38.5 -45.5h448l-20 -113h-601z" />
<glyph unicode="&#xb3;" horiz-adv-x="682" d="M53 785l129 16q4 -31 16 -58t33.5 -46.5t52.5 -30.5t72 -11q37 0 70 9.5t57.5 30t39 51.5t14.5 74q0 35 -16 58t-40 37t-53 19.5t-56 5.5h-61l21 109h57q31 0 66 6t65 23.5t50 47.5t20 78t-33 79.5t-90 31.5q-68 0 -116.5 -35t-67.5 -100l-125 25q18 58 48 99t70.5 67 t91.5 38t109 12q57 0 103.5 -15.5t79.5 -43t50.5 -64.5t17.5 -80q0 -179 -218 -223v-2q39 -7 69 -23.5t51 -39.5t32 -52t11 -61q0 -64 -25 -113.5t-68.5 -83.5t-102.5 -51.5t-127 -17.5q-84 0 -138.5 22t-88 56.5t-49 75.5t-21.5 80z" />
<glyph unicode="&#xb4;" horiz-adv-x="682" d="M175 1201l3 20l253 287h217l-5 -29l-374 -278h-94z" />
<glyph unicode="&#xb5;" horiz-adv-x="1180" d="M-1 -425l293 1507h181l-134 -686q-5 -29 -8 -54t-3 -47q0 -48 11 -81.5t32 -54.5t51 -30.5t68 -9.5q57 0 106.5 25t89 71t67.5 111t42 146l118 610h180l-157 -807q-5 -23 -7 -45.5t-2 -36.5q0 -37 15 -54.5t42 -17.5q11 0 28 3t28 5l-22 -129q-29 -8 -57 -14t-66 -6 q-74 0 -105 48.5t-31 140.5h-2q-65 -95 -141 -142t-168 -47q-62 0 -107 21t-68 58l-94 -484h-180z" />
<glyph unicode="&#xb6;" horiz-adv-x="1100" d="M144 1049q0 84 25 150.5t72.5 113t116.5 71.5t156 25h563v-102h-129v-1571h-112v1571h-217v-1571h-113v958q-80 0 -146.5 22.5t-114.5 66.5t-74.5 111t-26.5 155z" />
<glyph unicode="&#xb7;" horiz-adv-x="682" />
<glyph unicode="&#xb8;" horiz-adv-x="682" d="M71 -418l21 91q48 -6 88 -6q91 0 128.5 22t37.5 67q0 31 -27.5 51.5t-91.5 20.5h-29t-29 -2l101 174h107l-59 -96q81 -5 121.5 -41t40.5 -95q0 -45 -17 -81t-53.5 -60.5t-94 -38t-138.5 -13.5q-28 0 -55 2t-51 5z" />
<glyph unicode="&#xb9;" horiz-adv-x="682" d="M61 563l20 107h211l118 609l-229 -138l26 131l237 137h123l-144 -739h215l-21 -107h-556z" />
<glyph unicode="&#xba;" horiz-adv-x="748" d="M101 950q0 29 3.5 62.5t9.5 65.5q18 94 54 161t88 110t118.5 63t145.5 20q77 0 133.5 -21.5t94 -61t56 -94.5t18.5 -122q0 -29 -3.5 -62.5t-9.5 -65.5q-18 -94 -54 -161t-88 -110t-118 -63t-146 -20q-76 0 -133 21.5t-94.5 61t-56 94.5t-18.5 122zM248 938 q0 -49 11.5 -83.5t32.5 -56t50.5 -31t65.5 -9.5q43 0 80.5 10t69.5 38t57.5 78t43.5 129q9 42 14 77t5 64q0 94 -43.5 132.5t-121.5 38.5q-42 0 -79 -9.5t-68.5 -36.5t-56.5 -75t-43 -125q-10 -42 -14 -76t-4 -65z" />
<glyph unicode="&#xbb;" d="M5 141l7 39l410 367l-264 372l4 21h158l263 -371l-12 -63l-406 -365h-160zM482 141l7 39l410 367l-264 372l4 21h156l266 -371l-12 -63l-409 -365h-158z" />
<glyph unicode="&#xbc;" horiz-adv-x="1708" d="M96 563l20 107h211l118 609l-229 -138l26 131l237 137h123l-144 -739h215l-21 -107h-556zM274 0l1150 1409h154l-1151 -1409h-153zM901 179l21 111l484 557h161l-108 -555h125l-22 -113h-125l-35 -178h-131l35 178h-405zM1059 292h269l56 289q3 14 6.5 33t7.5 38t7.5 36 t6.5 26q-9 -13 -24 -31.5t-30.5 -38t-30 -37t-23.5 -28.5z" />
<glyph unicode="&#xbd;" horiz-adv-x="1708" d="M47 563l20 107h211l118 609l-229 -138l26 131l237 137h123l-144 -739h215l-21 -107h-556zM224 0l1150 1409h154l-1151 -1409h-153zM937 1l18 103q29 46 65 83.5t75.5 68.5t81 57t81.5 50q51 30 97 58t81.5 59t56 67.5t20.5 82.5q0 51 -34 87t-99 36q-32 0 -61.5 -9 t-54 -27t-42.5 -44.5t-26 -60.5l-125 15q13 52 38.5 95t64.5 73.5t92.5 47t120.5 16.5q63 0 112 -17t82 -46t50.5 -68t17.5 -84q0 -66 -28 -118t-73 -94.5t-101 -77.5t-113 -68q-35 -20 -69 -41t-63.5 -42t-53 -43.5t-38.5 -45.5h448l-20 -113h-601z" />
<glyph unicode="&#xbe;" horiz-adv-x="1708" d="M136 785l129 16q4 -31 16 -58t33.5 -46.5t52.5 -30.5t72 -11q37 0 70 9.5t57.5 30t39 51.5t14.5 74q0 35 -16 58t-40 37t-53 19.5t-56 5.5h-61l21 109h57q31 0 66 6t65 23.5t50 47.5t20 78t-33 79.5t-90 31.5q-68 0 -116.5 -35t-67.5 -100l-125 25q18 58 48 99t70.5 67 t91.5 38t109 12q57 0 103.5 -15.5t79.5 -43t50.5 -64.5t17.5 -80q0 -179 -218 -223v-2q39 -7 69 -23.5t51 -39.5t32 -52t11 -61q0 -64 -25 -113.5t-68.5 -83.5t-102.5 -51.5t-127 -17.5q-84 0 -138.5 22t-88 56.5t-49 75.5t-21.5 80zM274 0l1150 1409h154l-1151 -1409h-153z M901 179l21 111l484 557h161l-108 -555h125l-22 -113h-125l-35 -178h-131l35 178h-405zM1059 292h269l56 289q3 14 6.5 33t7.5 38t7.5 36t6.5 26q-9 -13 -24 -31.5t-30.5 -38t-30 -37t-23.5 -28.5z" />
<glyph unicode="&#xbf;" horiz-adv-x="1251" d="M65 10q0 97 30.5 165.5t79 119t109 88t120.5 71.5q42 24 81.5 49.5t71.5 55t54.5 65.5t31.5 82h175q-13 -78 -45.5 -134.5t-77 -99t-96.5 -74.5t-103 -61q-48 -27 -92 -55.5t-78 -63.5t-54 -80t-20 -107q0 -48 19 -88.5t53.5 -69t82.5 -44.5t107 -16q140 0 231 70 t129 192l165 -40q-27 -84 -70.5 -154t-109 -120.5t-154.5 -79t-208 -28.5q-100 0 -180.5 27t-136 75t-85.5 113t-30 142zM665 882l39 201h195l-39 -201h-195z" />
<glyph unicode="&#xc0;" horiz-adv-x="1366" d="M-83 0l848 1409h217l292 -1409h-195l-75 412h-639l-240 -412h-208zM449 561h527l-87 473q-8 41 -15.5 80t-12.5 71.5t-8.5 54t-4.5 25.5q-2 -4 -13.5 -26t-29.5 -54.5t-40 -72t-46 -79.5zM650 1747l5 29h207l173 -226l-3 -20h-89z" />
<glyph unicode="&#xc1;" horiz-adv-x="1366" d="M-83 0l848 1409h217l292 -1409h-195l-75 412h-639l-240 -412h-208zM449 561h527l-87 473q-8 41 -15.5 80t-12.5 71.5t-8.5 54t-4.5 25.5q-2 -4 -13.5 -26t-29.5 -54.5t-40 -72t-46 -79.5zM743 1530l3 20l261 226h207l-5 -29l-352 -217h-114z" />
<glyph unicode="&#xc2;" horiz-adv-x="1366" d="M-83 0l848 1409h217l292 -1409h-195l-75 412h-639l-240 -412h-208zM449 561h527l-87 473q-8 41 -15.5 80t-12.5 71.5t-8.5 54t-4.5 25.5q-2 -4 -13.5 -26t-29.5 -54.5t-40 -72t-46 -79.5zM532 1530l4 20l280 240h204l177 -240l-4 -20h-95l-192 139h-2l-259 -139h-113z " />
<glyph unicode="&#xc3;" horiz-adv-x="1366" d="M-83 0l848 1409h217l292 -1409h-195l-75 412h-639l-240 -412h-208zM449 561h527l-87 473q-8 41 -15.5 80t-12.5 71.5t-8.5 54t-4.5 25.5q-2 -4 -13.5 -26t-29.5 -54.5t-40 -72t-46 -79.5zM523 1530q14 45 33 92.5t47.5 86.5t70 64t100.5 25q44 0 82 -20t72 -44.5 t65 -44.5t61 -20q27 0 47.5 10t36 27t27.5 40.5t21 51.5h102q-14 -44 -32.5 -91.5t-47 -86.5t-70 -64.5t-101.5 -25.5q-42 0 -80 20t-72.5 44.5t-66 44.5t-62.5 20q-27 0 -47.5 -9.5t-36 -26.5t-27.5 -40.5t-22 -52.5h-100z" />
<glyph unicode="&#xc4;" horiz-adv-x="1366" d="M-83 0l848 1409h217l292 -1409h-195l-75 412h-639l-240 -412h-208zM449 561h527l-87 473q-8 41 -15.5 80t-12.5 71.5t-8.5 54t-4.5 25.5q-2 -4 -13.5 -26t-29.5 -54.5t-40 -72t-46 -79.5zM606 1530l35 184h175l-35 -184h-175zM990 1530l35 184h173l-35 -184h-173z" />
<glyph unicode="&#xc5;" horiz-adv-x="1366" d="M-101 0l848 1409h217l292 -1409h-195l-75 412h-639l-240 -412h-208zM431 561h527l-87 473q-8 41 -15.5 80t-12.5 71.5t-8.5 54t-4.5 25.5q-2 -4 -13.5 -26t-29.5 -54.5t-40 -72t-46 -79.5zM616 1546q0 50 19 94t52 76.5t77 51.5t94 19t94 -19t77 -51.5t52 -76.5t19 -94 t-19 -94t-52 -77t-77 -52t-94 -19t-94 19t-77 52t-52 77t-19 94zM723 1546q0 -28 10.5 -53t28.5 -44t43 -29.5t53 -10.5q29 0 53.5 10.5t42.5 29.5t28 44t10 53q0 29 -10 53.5t-28 42.5t-42.5 28t-53.5 10q-28 0 -53 -10t-43 -28t-28.5 -42.5t-10.5 -53.5z" />
<glyph unicode="&#xc6;" horiz-adv-x="2048" d="M-81 0l959 1409h1189l-30 -156h-739l-88 -452h679l-30 -154h-679l-95 -491h780l-31 -156h-971l81 412h-543l-279 -412h-203zM500 561h473l136 701h-151q-1 -3 -12 -20.5t-27 -42.5t-34 -54t-34.5 -54.5t-28.5 -44.5t-16 -24z" />
<glyph unicode="&#xc7;" horiz-adv-x="1479" d="M113 569q0 124 27 236t77 207.5t122 173t162.5 131.5t197.5 83.5t227 29.5q129 0 226 -29.5t166 -77.5t111 -110t61 -128l-180 -55q-15 47 -46 90.5t-79.5 78t-115 55t-153.5 20.5q-146 0 -260 -53.5t-193 -148t-120 -224t-41 -282.5q0 -94 26 -173t77.5 -136.5 t128.5 -89.5t179 -32q90 0 165 24.5t137.5 65t112 93t87.5 108.5l143 -89q-49 -73 -110 -138t-139.5 -113.5t-179 -77t-229.5 -28.5q-148 0 -258.5 46t-183.5 125.5t-109 187t-36 230.5zM461 -418l21 91q48 -6 88 -6q91 0 128.5 22t37.5 67q0 31 -27.5 51.5t-91.5 20.5h-29 t-29 -2l101 174h107l-59 -96q81 -5 121.5 -41t40.5 -95q0 -45 -17 -81t-53.5 -60.5t-94 -38t-138.5 -13.5q-28 0 -55 2t-51 5z" />
<glyph unicode="&#xc8;" horiz-adv-x="1366" d="M63 0l273 1409h1049l-30 -156h-858l-88 -452h798l-30 -154h-798l-95 -491h899l-30 -156h-1090zM644 1747l5 29h207l173 -226l-3 -20h-89z" />
<glyph unicode="&#xc9;" horiz-adv-x="1366" d="M63 0l273 1409h1049l-30 -156h-858l-88 -452h798l-30 -154h-798l-95 -491h899l-30 -156h-1090zM727 1530l3 20l261 226h207l-5 -29l-352 -217h-114z" />
<glyph unicode="&#xca;" horiz-adv-x="1366" d="M63 0l273 1409h1049l-30 -156h-858l-88 -452h798l-30 -154h-798l-95 -491h899l-30 -156h-1090zM541 1530l4 20l280 240h204l177 -240l-4 -20h-95l-192 139h-2l-259 -139h-113z" />
<glyph unicode="&#xcb;" horiz-adv-x="1366" d="M63 0l273 1409h1049l-30 -156h-858l-88 -452h798l-30 -154h-798l-95 -491h899l-30 -156h-1090zM593 1530l35 184h175l-35 -184h-175zM977 1530l35 184h173l-35 -184h-173z" />
<glyph unicode="&#xcc;" horiz-adv-x="569" d="M81 0l274 1409h191l-274 -1409h-191zM211 1747l5 29h207l173 -226l-3 -20h-89z" />
<glyph unicode="&#xcd;" horiz-adv-x="569" d="M81 0l274 1409h191l-274 -1409h-191zM365 1530l3 20l261 226h207l-5 -29l-352 -217h-114z" />
<glyph unicode="&#xce;" horiz-adv-x="569" d="M81 0l274 1409h191l-274 -1409h-191zM129 1530l4 20l280 240h204l177 -240l-4 -20h-95l-192 139h-2l-259 -139h-113z" />
<glyph unicode="&#xcf;" horiz-adv-x="569" d="M81 0l274 1409h191l-274 -1409h-191zM187 1530l35 184h175l-35 -184h-175zM571 1530l35 184h173l-35 -184h-173z" />
<glyph unicode="&#xd0;" horiz-adv-x="1479" d="M34 647l30 154h154l118 608h428q148 0 271 -39.5t211.5 -117.5t137.5 -193.5t49 -267.5q0 -133 -30.5 -243t-85 -198t-130.5 -153.5t-167.5 -109.5t-194.5 -65.5t-213 -21.5h-549l125 647h-154zM283 153h304q147 0 267.5 44t206 126.5t132 201t46.5 268.5 q0 120 -36.5 207t-100.5 144t-152 84.5t-190 27.5h-262l-89 -455h406l-30 -154h-406z" />
<glyph unicode="&#xd1;" horiz-adv-x="1479" d="M63 0l273 1409h212l534 -1215q6 43 13 91q6 41 14 91.5t18 101.5l181 931h172l-273 -1409h-220l-531 1210q-6 -46 -13 -94q-6 -41 -13.5 -87.5t-15.5 -85.5l-181 -943h-170zM571 1530q14 45 33 92.5t47.5 86.5t70 64t100.5 25q44 0 82 -20t72 -44.5t65 -44.5t61 -20 q27 0 47.5 10t36 27t27.5 40.5t21 51.5h102q-14 -44 -32.5 -91.5t-47 -86.5t-70 -64.5t-101.5 -25.5q-42 0 -80 20t-72.5 44.5t-66 44.5t-62.5 20q-27 0 -47.5 -9.5t-36 -26.5t-27.5 -40.5t-22 -52.5h-100z" />
<glyph unicode="&#xd2;" horiz-adv-x="1593" d="M111 573q0 46 4.5 94t14.5 97q30 150 100 273t174.5 210.5t239.5 135t294 47.5q144 0 255 -42.5t187.5 -119.5t116 -183t39.5 -234q-1 -49 -5.5 -101.5t-14.5 -100.5q-30 -154 -101 -277.5t-175.5 -210.5t-239 -134t-291.5 -47q-150 0 -262 43.5t-186.5 122t-112 187.5 t-37.5 240zM302 563q0 -107 28 -187.5t81.5 -134t131 -80t175.5 -26.5q132 0 234.5 37.5t177.5 108t124.5 171t74.5 225.5q9 42 12.5 87t3.5 83q0 107 -29 187.5t-83 134t-131 80.5t-173 27q-131 0 -233 -37t-177.5 -107t-124.5 -171t-75 -229q-9 -43 -13 -86.5t-4 -82.5z M677 1747l5 29h207l173 -226l-3 -20h-89z" />
<glyph unicode="&#xd3;" horiz-adv-x="1593" d="M111 573q0 46 4.5 94t14.5 97q30 150 100 273t174.5 210.5t239.5 135t294 47.5q144 0 255 -42.5t187.5 -119.5t116 -183t39.5 -234q-1 -49 -5.5 -101.5t-14.5 -100.5q-30 -154 -101 -277.5t-175.5 -210.5t-239 -134t-291.5 -47q-150 0 -262 43.5t-186.5 122t-112 187.5 t-37.5 240zM302 563q0 -107 28 -187.5t81.5 -134t131 -80t175.5 -26.5q132 0 234.5 37.5t177.5 108t124.5 171t74.5 225.5q9 42 12.5 87t3.5 83q0 107 -29 187.5t-83 134t-131 80.5t-173 27q-131 0 -233 -37t-177.5 -107t-124.5 -171t-75 -229q-9 -43 -13 -86.5t-4 -82.5z M817 1530l3 20l261 226h207l-5 -29l-352 -217h-114z" />
<glyph unicode="&#xd4;" horiz-adv-x="1593" d="M111 573q0 46 4.5 94t14.5 97q30 150 100 273t174.5 210.5t239.5 135t294 47.5q144 0 255 -42.5t187.5 -119.5t116 -183t39.5 -234q-1 -49 -5.5 -101.5t-14.5 -100.5q-30 -154 -101 -277.5t-175.5 -210.5t-239 -134t-291.5 -47q-150 0 -262 43.5t-186.5 122t-112 187.5 t-37.5 240zM302 563q0 -107 28 -187.5t81.5 -134t131 -80t175.5 -26.5q132 0 234.5 37.5t177.5 108t124.5 171t74.5 225.5q9 42 12.5 87t3.5 83q0 107 -29 187.5t-83 134t-131 80.5t-173 27q-131 0 -233 -37t-177.5 -107t-124.5 -171t-75 -229q-9 -43 -13 -86.5t-4 -82.5z M600 1530l4 20l280 240h204l177 -240l-4 -20h-95l-192 139h-2l-259 -139h-113z" />
<glyph unicode="&#xd5;" horiz-adv-x="1593" d="M111 573q0 46 4.5 94t14.5 97q30 150 100 273t174.5 210.5t239.5 135t294 47.5q144 0 255 -42.5t187.5 -119.5t116 -183t39.5 -234q-1 -49 -5.5 -101.5t-14.5 -100.5q-30 -154 -101 -277.5t-175.5 -210.5t-239 -134t-291.5 -47q-150 0 -262 43.5t-186.5 122t-112 187.5 t-37.5 240zM302 563q0 -107 28 -187.5t81.5 -134t131 -80t175.5 -26.5q132 0 234.5 37.5t177.5 108t124.5 171t74.5 225.5q9 42 12.5 87t3.5 83q0 107 -29 187.5t-83 134t-131 80.5t-173 27q-131 0 -233 -37t-177.5 -107t-124.5 -171t-75 -229q-9 -43 -13 -86.5t-4 -82.5z M622 1530q14 45 33 92.5t47.5 86.5t70 64t100.5 25q44 0 82 -20t72 -44.5t65 -44.5t61 -20q27 0 47.5 10t36 27t27.5 40.5t21 51.5h102q-14 -44 -32.5 -91.5t-47 -86.5t-70 -64.5t-101.5 -25.5q-42 0 -80 20t-72.5 44.5t-66 44.5t-62.5 20q-27 0 -47.5 -9.5t-36 -26.5 t-27.5 -40.5t-22 -52.5h-100z" />
<glyph unicode="&#xd6;" horiz-adv-x="1593" d="M111 573q0 46 4.5 94t14.5 97q30 150 100 273t174.5 210.5t239.5 135t294 47.5q144 0 255 -42.5t187.5 -119.5t116 -183t39.5 -234q-1 -49 -5.5 -101.5t-14.5 -100.5q-30 -154 -101 -277.5t-175.5 -210.5t-239 -134t-291.5 -47q-150 0 -262 43.5t-186.5 122t-112 187.5 t-37.5 240zM302 563q0 -107 28 -187.5t81.5 -134t131 -80t175.5 -26.5q132 0 234.5 37.5t177.5 108t124.5 171t74.5 225.5q9 42 12.5 87t3.5 83q0 107 -29 187.5t-83 134t-131 80.5t-173 27q-131 0 -233 -37t-177.5 -107t-124.5 -171t-75 -229q-9 -43 -13 -86.5t-4 -82.5z M664 1530l35 184h175l-35 -184h-175zM1048 1530l35 184h173l-35 -184h-173z" />
<glyph unicode="&#xd7;" horiz-adv-x="1196" d="M172 330l354 354l-352 352l104 103l350 -353l350 351l105 -105l-350 -348l352 -352l-102 -105l-353 353l-356 -355z" />
<glyph unicode="&#xd8;" horiz-adv-x="1593" d="M-56 -53l260 254q-52 75 -77.5 168.5t-25.5 203.5q0 46 4.5 94t14.5 97q30 150 100 273t174.5 210.5t239.5 135t294 47.5q127 0 228 -33t176 -94l167 163h192l-268 -261q51 -72 77 -161.5t26 -192.5q-1 -49 -5.5 -101.5t-14.5 -100.5q-30 -154 -101 -277.5t-175.5 -210.5 t-239 -134t-291.5 -47q-130 0 -230.5 32t-174.5 92l-161 -157h-189zM292 563q0 -136 46 -231l870 850q-109 94 -289 94q-131 0 -233 -37t-177.5 -107t-124.5 -171t-75 -229q-9 -43 -13 -86.5t-4 -82.5zM419 226q53 -46 125.5 -68.5t163.5 -22.5q132 0 234.5 37.5t177.5 108 t124.5 171t74.5 225.5q9 42 12.5 87t3.5 83q0 133 -46 227z" />
<glyph unicode="&#xd9;" horiz-adv-x="1479" d="M153 431q0 21 2 48.5t5.5 55.5t7.5 54.5t8 45.5l150 774h191l-162 -843q-7 -36 -12 -74.5t-5 -68.5q0 -74 25 -128t69 -89.5t105 -53t133 -17.5q87 0 161.5 22t134 70t102 125.5t63.5 188.5l168 868h190l-170 -879q-28 -141 -85.5 -244.5t-142.5 -171.5t-195 -101 t-242 -33q-104 0 -195.5 27t-159.5 83t-107 141t-39 200zM689 1747l5 29h207l173 -226l-3 -20h-89z" />
<glyph unicode="&#xda;" horiz-adv-x="1479" d="M153 431q0 21 2 48.5t5.5 55.5t7.5 54.5t8 45.5l150 774h191l-162 -843q-7 -36 -12 -74.5t-5 -68.5q0 -74 25 -128t69 -89.5t105 -53t133 -17.5q87 0 161.5 22t134 70t102 125.5t63.5 188.5l168 868h190l-170 -879q-28 -141 -85.5 -244.5t-142.5 -171.5t-195 -101 t-242 -33q-104 0 -195.5 27t-159.5 83t-107 141t-39 200zM776 1530l3 20l261 226h207l-5 -29l-352 -217h-114z" />
<glyph unicode="&#xdb;" horiz-adv-x="1479" d="M153 431q0 21 2 48.5t5.5 55.5t7.5 54.5t8 45.5l150 774h191l-162 -843q-7 -36 -12 -74.5t-5 -68.5q0 -74 25 -128t69 -89.5t105 -53t133 -17.5q87 0 161.5 22t134 70t102 125.5t63.5 188.5l168 868h190l-170 -879q-28 -141 -85.5 -244.5t-142.5 -171.5t-195 -101 t-242 -33q-104 0 -195.5 27t-159.5 83t-107 141t-39 200zM584 1530l4 20l280 240h204l177 -240l-4 -20h-95l-192 139h-2l-259 -139h-113z" />
<glyph unicode="&#xdc;" horiz-adv-x="1479" d="M153 431q0 21 2 48.5t5.5 55.5t7.5 54.5t8 45.5l150 774h191l-162 -843q-7 -36 -12 -74.5t-5 -68.5q0 -74 25 -128t69 -89.5t105 -53t133 -17.5q87 0 161.5 22t134 70t102 125.5t63.5 188.5l168 868h190l-170 -879q-28 -141 -85.5 -244.5t-142.5 -171.5t-195 -101 t-242 -33q-104 0 -195.5 27t-159.5 83t-107 141t-39 200zM634 1530l35 184h175l-35 -184h-175zM1018 1530l35 184h173l-35 -184h-173z" />
<glyph unicode="&#xdd;" horiz-adv-x="1366" d="M213 1409h196l306 -674l560 674h214l-704 -825l-113 -584h-190l115 584zM702 1530l3 20l261 226h207l-5 -29l-352 -217h-114z" />
<glyph unicode="&#xde;" horiz-adv-x="1366" d="M30 0l274 1409h191l-49 -252h327q121 0 214.5 -27t157 -77t96.5 -122.5t33 -162.5q0 -110 -39.5 -197.5t-113 -148t-179 -93t-237.5 -32.5h-424l-60 -297h-191zM311 448h387q192 0 287 78t95 233q0 65 -22.5 111t-63.5 76t-98.5 44t-127.5 14h-349z" />
<glyph unicode="&#xdf;" horiz-adv-x="1251" d="M34 0l200 1027q47 237 177.5 347t350.5 110q95 0 167.5 -23t122 -62.5t75 -91.5t25.5 -111q0 -65 -23 -111.5t-57.5 -82t-74.5 -62.5t-74.5 -52t-57.5 -51t-23 -60q0 -36 21 -68t52 -64t67.5 -66t67.5 -74t52 -88.5t21 -108.5q0 -76 -26 -138t-78 -106.5t-128 -68.5 t-177 -24q-42 0 -84 4t-81 11.5t-73 17.5t-59 22l56 143q45 -21 108.5 -37.5t137.5 -16.5q59 0 102 14t71 39t41.5 60t13.5 77q0 49 -20.5 87.5t-51.5 72t-66.5 64.5t-66.5 65t-51.5 73t-20.5 89q0 64 22.5 106.5t56.5 73.5t73.5 54.5t73.5 50t56.5 60.5t22.5 85 q0 32 -14.5 60.5t-42.5 50t-69.5 34t-95.5 12.5q-67 0 -122.5 -17.5t-98 -56t-73 -99.5t-47.5 -149l-198 -1021h-180z" />
<glyph unicode="&#xe0;" d="M52 278q0 81 23.5 140t64 101t95 68.5t116 41.5t127.5 21t129 7l232 3l7 36q5 25 8.5 48t3.5 43q0 91 -53 134.5t-147 43.5q-49 0 -91.5 -7.5t-76 -27t-59 -53t-41.5 -84.5l-178 29q19 62 52 113.5t87 88.5t131.5 57.5t185.5 20.5q89 0 158 -22t116 -61t71.5 -93 t24.5 -119q0 -31 -5.5 -74.5t-13.5 -82.5l-74 -378q-5 -22 -8 -45t-3 -43q0 -37 19.5 -55t61.5 -18q15 0 30.5 2t29.5 5l-14 -112q-29 -7 -62.5 -11.5t-65.5 -4.5q-93 0 -135.5 38.5t-42.5 114.5q0 15 2 32.5t3 31.5h-6q-35 -53 -72.5 -95t-83 -71.5t-101.5 -45t-130 -15.5 q-78 0 -136.5 25t-98.5 66.5t-60 95.5t-20 111zM243 286q0 -32 10.5 -62.5t32.5 -54t54.5 -38t76.5 -14.5q87 0 152 30t111 74t72.5 95.5t35.5 94.5l27 125l-199 -4q-40 -1 -83 -4t-84.5 -12.5t-79 -25.5t-65.5 -43.5t-44.5 -66.5t-16.5 -94zM471 1479l5 29h207l161 -287 l-3 -20h-88z" />
<glyph unicode="&#xe1;" d="M52 278q0 81 23.5 140t64 101t95 68.5t116 41.5t127.5 21t129 7l232 3l7 36q5 25 8.5 48t3.5 43q0 91 -53 134.5t-147 43.5q-49 0 -91.5 -7.5t-76 -27t-59 -53t-41.5 -84.5l-178 29q19 62 52 113.5t87 88.5t131.5 57.5t185.5 20.5q89 0 158 -22t116 -61t71.5 -93 t24.5 -119q0 -31 -5.5 -74.5t-13.5 -82.5l-74 -378q-5 -22 -8 -45t-3 -43q0 -37 19.5 -55t61.5 -18q15 0 30.5 2t29.5 5l-14 -112q-29 -7 -62.5 -11.5t-65.5 -4.5q-93 0 -135.5 38.5t-42.5 114.5q0 15 2 32.5t3 31.5h-6q-35 -53 -72.5 -95t-83 -71.5t-101.5 -45t-130 -15.5 q-78 0 -136.5 25t-98.5 66.5t-60 95.5t-20 111zM243 286q0 -32 10.5 -62.5t32.5 -54t54.5 -38t76.5 -14.5q87 0 152 30t111 74t72.5 95.5t35.5 94.5l27 125l-199 -4q-40 -1 -83 -4t-84.5 -12.5t-79 -25.5t-65.5 -43.5t-44.5 -66.5t-16.5 -94zM540 1201l3 20l253 287h217 l-5 -29l-374 -278h-94z" />
<glyph unicode="&#xe2;" d="M52 278q0 81 23.5 140t64 101t95 68.5t116 41.5t127.5 21t129 7l232 3l7 36q5 25 8.5 48t3.5 43q0 91 -53 134.5t-147 43.5q-49 0 -91.5 -7.5t-76 -27t-59 -53t-41.5 -84.5l-178 29q19 62 52 113.5t87 88.5t131.5 57.5t185.5 20.5q89 0 158 -22t116 -61t71.5 -93 t24.5 -119q0 -31 -5.5 -74.5t-13.5 -82.5l-74 -378q-5 -22 -8 -45t-3 -43q0 -37 19.5 -55t61.5 -18q15 0 30.5 2t29.5 5l-14 -112q-29 -7 -62.5 -11.5t-65.5 -4.5q-93 0 -135.5 38.5t-42.5 114.5q0 15 2 32.5t3 31.5h-6q-35 -53 -72.5 -95t-83 -71.5t-101.5 -45t-130 -15.5 q-78 0 -136.5 25t-98.5 66.5t-60 95.5t-20 111zM243 286q0 -32 10.5 -62.5t32.5 -54t54.5 -38t76.5 -14.5q87 0 152 30t111 74t72.5 95.5t35.5 94.5l27 125l-199 -4q-40 -1 -83 -4t-84.5 -12.5t-79 -25.5t-65.5 -43.5t-44.5 -66.5t-16.5 -94zM342 1201l4 20l286 270h204 l171 -270l-4 -20h-92l-186 169h-2l-265 -169h-116z" />
<glyph unicode="&#xe3;" d="M52 278q0 81 23.5 140t64 101t95 68.5t116 41.5t127.5 21t129 7l232 3l7 36q5 25 8.5 48t3.5 43q0 91 -53 134.5t-147 43.5q-49 0 -91.5 -7.5t-76 -27t-59 -53t-41.5 -84.5l-178 29q19 62 52 113.5t87 88.5t131.5 57.5t185.5 20.5q89 0 158 -22t116 -61t71.5 -93 t24.5 -119q0 -31 -5.5 -74.5t-13.5 -82.5l-74 -378q-5 -22 -8 -45t-3 -43q0 -37 19.5 -55t61.5 -18q15 0 30.5 2t29.5 5l-14 -112q-29 -7 -62.5 -11.5t-65.5 -4.5q-93 0 -135.5 38.5t-42.5 114.5q0 15 2 32.5t3 31.5h-6q-35 -53 -72.5 -95t-83 -71.5t-101.5 -45t-130 -15.5 q-78 0 -136.5 25t-98.5 66.5t-60 95.5t-20 111zM243 286q0 -32 10.5 -62.5t32.5 -54t54.5 -38t76.5 -14.5q87 0 152 30t111 74t72.5 95.5t35.5 94.5l27 125l-199 -4q-40 -1 -83 -4t-84.5 -12.5t-79 -25.5t-65.5 -43.5t-44.5 -66.5t-16.5 -94zM329 1201q14 45 33 92.5 t47.5 86.5t70 64t100.5 25q44 0 82 -18.5t72.5 -41t65.5 -41t61 -18.5q54 0 88 31.5t53 87.5h92q-14 -44 -32.5 -91.5t-47 -86.5t-70 -64.5t-101.5 -25.5q-42 0 -80 18.5t-72.5 41t-66.5 41t-63 18.5q-55 0 -88.5 -31t-53.5 -88h-90z" />
<glyph unicode="&#xe4;" d="M52 278q0 81 23.5 140t64 101t95 68.5t116 41.5t127.5 21t129 7l232 3l7 36q5 25 8.5 48t3.5 43q0 91 -53 134.5t-147 43.5q-49 0 -91.5 -7.5t-76 -27t-59 -53t-41.5 -84.5l-178 29q19 62 52 113.5t87 88.5t131.5 57.5t185.5 20.5q89 0 158 -22t116 -61t71.5 -93 t24.5 -119q0 -31 -5.5 -74.5t-13.5 -82.5l-74 -378q-5 -22 -8 -45t-3 -43q0 -37 19.5 -55t61.5 -18q15 0 30.5 2t29.5 5l-14 -112q-29 -7 -62.5 -11.5t-65.5 -4.5q-93 0 -135.5 38.5t-42.5 114.5q0 15 2 32.5t3 31.5h-6q-35 -53 -72.5 -95t-83 -71.5t-101.5 -45t-130 -15.5 q-78 0 -136.5 25t-98.5 66.5t-60 95.5t-20 111zM243 286q0 -32 10.5 -62.5t32.5 -54t54.5 -38t76.5 -14.5q87 0 152 30t111 74t72.5 95.5t35.5 94.5l27 125l-199 -4q-40 -1 -83 -4t-84.5 -12.5t-79 -25.5t-65.5 -43.5t-44.5 -66.5t-16.5 -94zM403 1219l35 184h175l-35 -184 h-175zM787 1219l35 184h173l-35 -184h-173z" />
<glyph unicode="&#xe5;" d="M52 278q0 81 23.5 140t64 101t95 68.5t116 41.5t127.5 21t129 7l232 3l7 36q5 25 8.5 48t3.5 43q0 91 -53 134.5t-147 43.5q-49 0 -91.5 -7.5t-76 -27t-59 -53t-41.5 -84.5l-178 29q19 62 52 113.5t87 88.5t131.5 57.5t185.5 20.5q89 0 158 -22t116 -61t71.5 -93 t24.5 -119q0 -31 -5.5 -74.5t-13.5 -82.5l-74 -378q-5 -22 -8 -45t-3 -43q0 -37 19.5 -55t61.5 -18q15 0 30.5 2t29.5 5l-14 -112q-29 -7 -62.5 -11.5t-65.5 -4.5q-93 0 -135.5 38.5t-42.5 114.5q0 15 2 32.5t3 31.5h-6q-35 -53 -72.5 -95t-83 -71.5t-101.5 -45t-130 -15.5 q-78 0 -136.5 25t-98.5 66.5t-60 95.5t-20 111zM243 286q0 -32 10.5 -62.5t32.5 -54t54.5 -38t76.5 -14.5q87 0 152 30t111 74t72.5 95.5t35.5 94.5l27 125l-199 -4q-40 -1 -83 -4t-84.5 -12.5t-79 -25.5t-65.5 -43.5t-44.5 -66.5t-16.5 -94zM491 1410q0 50 19 94t52 76.5 t77 51.5t94 19t94 -19t77 -51.5t52 -76.5t19 -94t-19 -94t-52 -77t-77 -52t-94 -19t-94 19t-77 52t-52 77t-19 94zM598 1410q0 -28 10.5 -53t28.5 -44t43 -29.5t53 -10.5q29 0 53.5 10.5t42.5 29.5t28 44t10 53q0 29 -10 53.5t-28 42.5t-42.5 28t-53.5 10q-28 0 -53 -10 t-43 -28t-28.5 -42.5t-10.5 -53.5z" />
<glyph unicode="&#xe6;" horiz-adv-x="1821" d="M32 278q0 81 24 140t65.5 101t97.5 68.5t119 41.5t130.5 21t132.5 7l238 3l7 36q5 25 8.5 48t3.5 43q0 91 -54.5 134.5t-153.5 43.5q-52 0 -96 -7.5t-79 -27t-61.5 -53t-43.5 -84.5l-178 29q20 62 54.5 113.5t90 88.5t136 57.5t192.5 20.5q122 0 200 -43t125 -115 q59 75 146 116.5t199 41.5q104 0 181 -29t128 -81t76.5 -124.5t25.5 -159.5q0 -21 -1.5 -46t-4.5 -52t-7 -54.5t-10 -52.5h-734q-5 -28 -6.5 -56.5t-2.5 -56.5q0 -133 61.5 -204t182.5 -71q51 0 93 14.5t76 39t59.5 57t43.5 68.5l138 -63q-24 -45 -58 -89.5t-84.5 -80.5 t-121 -58.5t-168.5 -22.5q-151 0 -246 70t-130 198q-39 -56 -86.5 -105t-106.5 -85t-130 -57t-156 -21q-80 0 -139 25t-98 66.5t-58.5 95.5t-19.5 111zM223 286q0 -37 12 -68.5t34 -53.5t53.5 -34.5t71.5 -12.5q89 0 159.5 31.5t121 79.5t81.5 106t41 111l17 89l-206 -4 q-41 -1 -85.5 -4t-87.5 -12t-81.5 -25t-67.5 -43t-46 -66t-17 -94zM1013 641h550q2 20 3 37.5t1 34.5q0 66 -16.5 114.5t-46.5 80t-72.5 46.5t-93.5 15q-45 0 -93.5 -14.5t-93 -51.5t-81 -100.5t-57.5 -161.5z" />
<glyph unicode="&#xe7;" horiz-adv-x="1024" d="M67 395q0 40 3.5 87t12.5 92q22 111 56.5 193t77 140.5t92 96.5t102 59.5t107 30t107.5 8.5q89 0 156.5 -23t114.5 -65t73.5 -100.5t31.5 -129.5l-177 -25q-3 45 -17 82t-39.5 63.5t-62.5 41.5t-86 15q-69 0 -124 -20t-98.5 -65t-74.5 -117.5t-52 -177.5q-9 -48 -14 -101 t-5 -91q0 -127 51.5 -197t166.5 -70q56 0 101 16.5t80 46.5t62 72.5t46 94.5l156 -49q-28 -75 -68.5 -134.5t-96 -101.5t-126.5 -64.5t-158 -22.5q-103 0 -178.5 31t-124 86.5t-72 131.5t-23.5 166zM205 -418l21 91q48 -6 88 -6q91 0 128.5 22t37.5 67q0 31 -27.5 51.5 t-91.5 20.5h-29t-29 -2l101 174h107l-59 -96q81 -5 121.5 -41t40.5 -95q0 -45 -17 -81t-53.5 -60.5t-94 -38t-138.5 -13.5q-28 0 -55 2t-51 5z" />
<glyph unicode="&#xe8;" d="M69 405q0 158 42.5 287t118 220t178 140.5t222.5 49.5q110 0 191 -29t135 -81t80.5 -124.5t26.5 -159.5q0 -21 -1.5 -46t-4.5 -52t-7.5 -54.5t-10.5 -52.5h-783q-5 -28 -6.5 -56.5t-2.5 -56.5q0 -133 66.5 -204t200.5 -71q56 0 102 14.5t83.5 39t66 57t47.5 68.5l138 -63 q-25 -45 -61 -89.5t-89.5 -80.5t-128.5 -58.5t-179 -22.5q-100 0 -179 28.5t-133.5 83t-83 133.5t-28.5 180zM280 641h600q2 20 3 37.5t1 34.5q0 66 -18 114.5t-51 80t-79 46.5t-102 15q-48 0 -101 -14.5t-101.5 -51.5t-88.5 -100.5t-63 -161.5zM428 1479l5 29h207l161 -287 l-3 -20h-88z" />
<glyph unicode="&#xe9;" d="M69 405q0 158 42.5 287t118 220t178 140.5t222.5 49.5q110 0 191 -29t135 -81t80.5 -124.5t26.5 -159.5q0 -21 -1.5 -46t-4.5 -52t-7.5 -54.5t-10.5 -52.5h-783q-5 -28 -6.5 -56.5t-2.5 -56.5q0 -133 66.5 -204t200.5 -71q56 0 102 14.5t83.5 39t66 57t47.5 68.5l138 -63 q-25 -45 -61 -89.5t-89.5 -80.5t-128.5 -58.5t-179 -22.5q-100 0 -179 28.5t-133.5 83t-83 133.5t-28.5 180zM280 641h600q2 20 3 37.5t1 34.5q0 66 -18 114.5t-51 80t-79 46.5t-102 15q-48 0 -101 -14.5t-101.5 -51.5t-88.5 -100.5t-63 -161.5zM533 1201l3 20l253 287h217 l-5 -29l-374 -278h-94z" />
<glyph unicode="&#xea;" d="M69 405q0 158 42.5 287t118 220t178 140.5t222.5 49.5q110 0 191 -29t135 -81t80.5 -124.5t26.5 -159.5q0 -21 -1.5 -46t-4.5 -52t-7.5 -54.5t-10.5 -52.5h-783q-5 -28 -6.5 -56.5t-2.5 -56.5q0 -133 66.5 -204t200.5 -71q56 0 102 14.5t83.5 39t66 57t47.5 68.5l138 -63 q-25 -45 -61 -89.5t-89.5 -80.5t-128.5 -58.5t-179 -22.5q-100 0 -179 28.5t-133.5 83t-83 133.5t-28.5 180zM280 641h600q2 20 3 37.5t1 34.5q0 66 -18 114.5t-51 80t-79 46.5t-102 15q-48 0 -101 -14.5t-101.5 -51.5t-88.5 -100.5t-63 -161.5zM335 1201l4 20l286 270h204 l171 -270l-4 -20h-92l-186 169h-2l-265 -169h-116z" />
<glyph unicode="&#xeb;" d="M69 405q0 158 42.5 287t118 220t178 140.5t222.5 49.5q110 0 191 -29t135 -81t80.5 -124.5t26.5 -159.5q0 -21 -1.5 -46t-4.5 -52t-7.5 -54.5t-10.5 -52.5h-783q-5 -28 -6.5 -56.5t-2.5 -56.5q0 -133 66.5 -204t200.5 -71q56 0 102 14.5t83.5 39t66 57t47.5 68.5l138 -63 q-25 -45 -61 -89.5t-89.5 -80.5t-128.5 -58.5t-179 -22.5q-100 0 -179 28.5t-133.5 83t-83 133.5t-28.5 180zM280 641h600q2 20 3 37.5t1 34.5q0 66 -18 114.5t-51 80t-79 46.5t-102 15q-48 0 -101 -14.5t-101.5 -51.5t-88.5 -100.5t-63 -161.5zM378 1219l35 184h175 l-35 -184h-175zM762 1219l35 184h173l-35 -184h-173z" />
<glyph unicode="&#xec;" horiz-adv-x="569" d="M89 0l210 1082h180l-211 -1082h-179zM126 1479l5 29h207l161 -287l-3 -20h-88z" />
<glyph unicode="&#xed;" horiz-adv-x="569" d="M89 0l210 1082h180l-211 -1082h-179zM262 1201l3 20l253 287h217l-5 -29l-374 -278h-94z" />
<glyph unicode="&#xee;" horiz-adv-x="569" d="M58 1201l4 20l286 270h204l171 -270l-4 -20h-92l-186 169h-2l-265 -169h-116zM89 0l210 1082h180l-211 -1082h-179z" />
<glyph unicode="&#xef;" horiz-adv-x="569" d="M89 0l210 1082h180l-211 -1082h-179zM130 1219l35 184h175l-35 -184h-175zM514 1219l35 184h173l-35 -184h-173z" />
<glyph unicode="&#xf0;" d="M67 403q0 30 3 64t9 66q40 214 172 330t354 116q34 0 71 -6.5t71.5 -19.5t65 -32.5t51.5 -46.5q-9 54 -24.5 106.5t-37 100.5t-48 91t-56.5 77l-273 -113l21 120l179 72q-48 45 -94.5 82.5t-100.5 73.5h176q40 -20 80 -46.5t76 -55.5l263 102l-19 -108l-169 -67 q48 -57 88 -118.5t68.5 -132t44.5 -152t16 -178.5q0 -27 -1.5 -59t-5 -65.5t-8 -66t-10.5 -59.5q-29 -132 -75.5 -225.5t-113 -153t-153 -87t-196.5 -27.5q-105 0 -184.5 31.5t-132.5 87.5t-80 132.5t-27 166.5zM251 388q0 -130 63 -200t180 -70q59 0 110 14.5t93.5 49 t75.5 93t55 145.5q5 17 10 42.5t10 55t8 60t3 57.5q0 36 -16 73.5t-48.5 68t-80.5 50t-111 19.5q-70 0 -125.5 -19t-97.5 -59.5t-71 -105t-46 -156.5q-6 -32 -9 -63t-3 -55z" />
<glyph unicode="&#xf1;" d="M34 0l166 851q7 34 13.5 71.5t12 71t9 57.5t4.5 31h170q0 -5 -3 -27t-7.5 -50.5t-9 -58t-8.5 -49.5h3q34 47 70 85t79.5 64.5t96 40.5t119.5 14q148 0 222.5 -73t74.5 -211q0 -36 -6.5 -81t-14.5 -83l-127 -653h-181l126 645q8 39 13 79.5t5 70.5q0 79 -42 123t-137 44 q-64 0 -120.5 -25.5t-102.5 -72t-78.5 -112t-48.5 -146.5l-118 -606h-180zM330 1201q14 45 33 92.5t47.5 86.5t70 64t100.5 25q44 0 82 -18.5t72.5 -41t65.5 -41t61 -18.5q54 0 88 31.5t53 87.5h92q-14 -44 -32.5 -91.5t-47 -86.5t-70 -64.5t-101.5 -25.5q-42 0 -80 18.5 t-72.5 41t-66.5 41t-63 18.5q-55 0 -88.5 -31t-53.5 -88h-90z" />
<glyph unicode="&#xf2;" d="M73 419q1 47 5.5 97t16.5 104q29 126 80 216.5t121 149.5t158.5 87t193.5 28q106 0 186.5 -28t135 -82t82.5 -131.5t28 -176.5q0 -52 -6 -104.5t-20 -111.5q-30 -132 -83.5 -225t-125.5 -151t-160 -84.5t-188 -26.5q-96 0 -174 29.5t-133.5 86t-86 138t-30.5 185.5z M258 416q0 -82 19 -140t52.5 -94t79 -52.5t99.5 -16.5t106.5 12t99.5 50.5t86.5 109.5t66.5 188q14 60 19.5 110t7.5 100q0 77 -17 131t-49.5 88.5t-78.5 50.5t-103 16q-53 0 -106.5 -12.5t-102 -50.5t-88.5 -108t-67 -186q-13 -55 -18.5 -104.5t-5.5 -91.5zM438 1479l5 29 h207l161 -287l-3 -20h-88z" />
<glyph unicode="&#xf3;" d="M73 419q1 47 5.5 97t16.5 104q29 126 80 216.5t121 149.5t158.5 87t193.5 28q106 0 186.5 -28t135 -82t82.5 -131.5t28 -176.5q0 -52 -6 -104.5t-20 -111.5q-30 -132 -83.5 -225t-125.5 -151t-160 -84.5t-188 -26.5q-96 0 -174 29.5t-133.5 86t-86 138t-30.5 185.5z M258 416q0 -82 19 -140t52.5 -94t79 -52.5t99.5 -16.5t106.5 12t99.5 50.5t86.5 109.5t66.5 188q14 60 19.5 110t7.5 100q0 77 -17 131t-49.5 88.5t-78.5 50.5t-103 16q-53 0 -106.5 -12.5t-102 -50.5t-88.5 -108t-67 -186q-13 -55 -18.5 -104.5t-5.5 -91.5zM533 1201l3 20 l253 287h217l-5 -29l-374 -278h-94z" />
<glyph unicode="&#xf4;" d="M73 419q1 47 5.5 97t16.5 104q29 126 80 216.5t121 149.5t158.5 87t193.5 28q106 0 186.5 -28t135 -82t82.5 -131.5t28 -176.5q0 -52 -6 -104.5t-20 -111.5q-30 -132 -83.5 -225t-125.5 -151t-160 -84.5t-188 -26.5q-96 0 -174 29.5t-133.5 86t-86 138t-30.5 185.5z M258 416q0 -82 19 -140t52.5 -94t79 -52.5t99.5 -16.5t106.5 12t99.5 50.5t86.5 109.5t66.5 188q14 60 19.5 110t7.5 100q0 77 -17 131t-49.5 88.5t-78.5 50.5t-103 16q-53 0 -106.5 -12.5t-102 -50.5t-88.5 -108t-67 -186q-13 -55 -18.5 -104.5t-5.5 -91.5zM344 1201l4 20 l286 270h204l171 -270l-4 -20h-92l-186 169h-2l-265 -169h-116z" />
<glyph unicode="&#xf5;" d="M73 419q1 47 5.5 97t16.5 104q29 126 80 216.5t121 149.5t158.5 87t193.5 28q106 0 186.5 -28t135 -82t82.5 -131.5t28 -176.5q0 -52 -6 -104.5t-20 -111.5q-30 -132 -83.5 -225t-125.5 -151t-160 -84.5t-188 -26.5q-96 0 -174 29.5t-133.5 86t-86 138t-30.5 185.5z M258 416q0 -82 19 -140t52.5 -94t79 -52.5t99.5 -16.5t106.5 12t99.5 50.5t86.5 109.5t66.5 188q14 60 19.5 110t7.5 100q0 77 -17 131t-49.5 88.5t-78.5 50.5t-103 16q-53 0 -106.5 -12.5t-102 -50.5t-88.5 -108t-67 -186q-13 -55 -18.5 -104.5t-5.5 -91.5zM300 1201 q14 45 33 92.5t47.5 86.5t70 64t100.5 25q44 0 82 -18.5t72.5 -41t65.5 -41t61 -18.5q54 0 88 31.5t53 87.5h92q-14 -44 -32.5 -91.5t-47 -86.5t-70 -64.5t-101.5 -25.5q-42 0 -80 18.5t-72.5 41t-66.5 41t-63 18.5q-55 0 -88.5 -31t-53.5 -88h-90z" />
<glyph unicode="&#xf6;" d="M73 419q1 47 5.5 97t16.5 104q29 126 80 216.5t121 149.5t158.5 87t193.5 28q106 0 186.5 -28t135 -82t82.5 -131.5t28 -176.5q0 -52 -6 -104.5t-20 -111.5q-30 -132 -83.5 -225t-125.5 -151t-160 -84.5t-188 -26.5q-96 0 -174 29.5t-133.5 86t-86 138t-30.5 185.5z M258 416q0 -82 19 -140t52.5 -94t79 -52.5t99.5 -16.5t106.5 12t99.5 50.5t86.5 109.5t66.5 188q14 60 19.5 110t7.5 100q0 77 -17 131t-49.5 88.5t-78.5 50.5t-103 16q-53 0 -106.5 -12.5t-102 -50.5t-88.5 -108t-67 -186q-13 -55 -18.5 -104.5t-5.5 -91.5zM390 1219 l35 184h175l-35 -184h-175zM774 1219l35 184h173l-35 -184h-173z" />
<glyph unicode="&#xf7;" horiz-adv-x="1124" d="M82 608v146h995v-146h-995zM495 223v183h168v-183h-168zM495 958v183h168v-183h-168z" />
<glyph unicode="&#xf8;" horiz-adv-x="1251" d="M44 -38l157 183q-37 53 -56.5 121t-19.5 153q1 47 5.5 97t16.5 104q29 126 80 216.5t121 149.5t158.5 87t193.5 28q162 0 267 -67l70 82h167l-146 -169q74 -103 74 -264q0 -52 -6 -104.5t-20 -111.5q-30 -132 -83.5 -224t-125.5 -149.5t-160 -83t-188 -25.5 q-154 0 -258 71l-80 -94h-167zM310 416q0 -73 15 -127l540 627q-32 27 -74 40t-93 13q-53 0 -106.5 -12.5t-102 -50.5t-88.5 -108t-67 -186q-13 -55 -18.5 -104.5t-5.5 -91.5zM392 173q33 -29 75.5 -42t92.5 -13q54 0 106.5 11.5t99.5 48.5t86.5 107.5t66.5 187.5 q14 60 19.5 110t7.5 100q0 66 -14 117z" />
<glyph unicode="&#xf9;" d="M86 265q0 36 6.5 81t14.5 83l127 653h181l-126 -645q-8 -39 -13 -79.5t-5 -70.5q0 -79 42 -123t137 -44q64 0 120.5 25.5t102.5 72t78.5 112t48.5 146.5l118 606h180l-166 -851q-7 -34 -13.5 -71.5t-12 -71t-9 -57.5t-4.5 -31h-170q0 5 3 27t7.5 50.5t9 58t8.5 49.5h-3 q-34 -47 -70 -85t-79.5 -64.5t-96 -40.5t-119.5 -14q-148 0 -222.5 73t-74.5 211zM452 1479l5 29h207l161 -287l-3 -20h-88z" />
<glyph unicode="&#xfa;" d="M86 265q0 36 6.5 81t14.5 83l127 653h181l-126 -645q-8 -39 -13 -79.5t-5 -70.5q0 -79 42 -123t137 -44q64 0 120.5 25.5t102.5 72t78.5 112t48.5 146.5l118 606h180l-166 -851q-7 -34 -13.5 -71.5t-12 -71t-9 -57.5t-4.5 -31h-170q0 5 3 27t7.5 50.5t9 58t8.5 49.5h-3 q-34 -47 -70 -85t-79.5 -64.5t-96 -40.5t-119.5 -14q-148 0 -222.5 73t-74.5 211zM541 1201l3 20l253 287h217l-5 -29l-374 -278h-94z" />
<glyph unicode="&#xfb;" d="M86 265q0 36 6.5 81t14.5 83l127 653h181l-126 -645q-8 -39 -13 -79.5t-5 -70.5q0 -79 42 -123t137 -44q64 0 120.5 25.5t102.5 72t78.5 112t48.5 146.5l118 606h180l-166 -851q-7 -34 -13.5 -71.5t-12 -71t-9 -57.5t-4.5 -31h-170q0 5 3 27t7.5 50.5t9 58t8.5 49.5h-3 q-34 -47 -70 -85t-79.5 -64.5t-96 -40.5t-119.5 -14q-148 0 -222.5 73t-74.5 211zM356 1201l4 20l286 270h204l171 -270l-4 -20h-92l-186 169h-2l-265 -169h-116z" />
<glyph unicode="&#xfc;" d="M86 265q0 36 6.5 81t14.5 83l127 653h181l-126 -645q-8 -39 -13 -79.5t-5 -70.5q0 -79 42 -123t137 -44q64 0 120.5 25.5t102.5 72t78.5 112t48.5 146.5l118 606h180l-166 -851q-7 -34 -13.5 -71.5t-12 -71t-9 -57.5t-4.5 -31h-170q0 5 3 27t7.5 50.5t9 58t8.5 49.5h-3 q-34 -47 -70 -85t-79.5 -64.5t-96 -40.5t-119.5 -14q-148 0 -222.5 73t-74.5 211zM410 1219l35 184h175l-35 -184h-175zM794 1219l35 184h173l-35 -184h-173z" />
<glyph unicode="&#xfd;" horiz-adv-x="1024" d="M-116 -411l31 134q17 -3 38.5 -5.5t38.5 -2.5q95 0 167.5 64t142.5 186l27 47l-217 1070h183l112 -598q6 -32 13 -74t13 -83.5t10.5 -77t5.5 -53.5q10 22 26 53.5t35.5 67t40 73t39.5 72.5l338 620h199l-626 -1082q-55 -95 -106 -173t-107 -134t-121.5 -87t-150.5 -31 q-33 0 -67.5 3.5t-64.5 10.5zM503 1201l3 20l253 287h217l-5 -29l-374 -278h-94z" />
<glyph unicode="&#xfe;" d="M-51 -425l371 1909h180l-83 -423q-5 -29 -11.5 -55t-11.5 -45q-6 -22 -11 -40h4q36 47 73.5 81t80 56.5t91.5 33t109 10.5q80 0 142 -25t104 -71t64 -111.5t22 -146.5q0 -50 -4.5 -109.5t-16.5 -122.5q-27 -142 -71 -243.5t-106 -166.5t-142 -95.5t-179 -30.5 q-123 0 -200.5 52t-109.5 146h-5q-1 -9 -3.5 -27.5t-6 -42.5t-8.5 -52.5t-11 -57.5l-82 -423h-179zM295 377q0 -64 17 -113.5t48.5 -83t76 -50.5t98.5 -17q62 0 112 18.5t90.5 64t71.5 122t53 192.5q23 121 23 206q0 123 -47 185t-149 62q-64 0 -121.5 -19t-106.5 -65.5 t-86.5 -125.5t-60.5 -199q-19 -98 -19 -177z" />
<glyph unicode="&#xff;" horiz-adv-x="1024" d="M-116 -411l31 134q17 -3 38.5 -5.5t38.5 -2.5q95 0 167.5 64t142.5 186l27 47l-217 1070h183l112 -598q6 -32 13 -74t13 -83.5t10.5 -77t5.5 -53.5q10 22 26 53.5t35.5 67t40 73t39.5 72.5l338 620h199l-626 -1082q-55 -95 -106 -173t-107 -134t-121.5 -87t-150.5 -31 q-33 0 -67.5 3.5t-64.5 10.5zM354 1219l35 184h175l-35 -184h-175zM738 1219l35 184h173l-35 -184h-173z" />
<glyph unicode="&#x152;" horiz-adv-x="2048" d="M101 573q0 94 18 191q29 150 100.5 271.5t176.5 207t239.5 131.5t289.5 46q25 0 60 -1t72.5 -2.5t73.5 -3.5t63 -4h873l-30 -156h-710l-88 -452h650l-30 -154h-650l-95 -491h751l-30 -156h-942q-38 -5 -90.5 -7.5t-100.5 -2.5q-145 0 -257.5 42t-188.5 118.5t-115.5 184 t-39.5 238.5zM292 563q0 -107 30 -186t85.5 -130.5t133 -76.5t171.5 -25q32 0 63 1t59 2.5t51 3.5t38 4l213 1099q-23 3 -52.5 5t-59.5 3.5t-58.5 2t-50.5 0.5q-126 0 -227.5 -35.5t-177.5 -103.5t-126.5 -167.5t-75.5 -227.5q-8 -43 -12 -86.5t-4 -82.5z" />
<glyph unicode="&#x153;" horiz-adv-x="1933" d="M69 419q1 47 5.5 97t16.5 104q29 126 79.5 216.5t120.5 149.5t158 87t193 28q142 0 237.5 -49.5t144.5 -142.5q76 93 179 143t224 50q110 0 190.5 -29t134 -81t79.5 -124.5t26 -159.5q0 -21 -1.5 -46t-4.5 -52t-7.5 -54.5t-10.5 -52.5h-778q-5 -23 -8 -54.5t-3 -58.5 q0 -133 66.5 -204t200.5 -71q56 0 101.5 14.5t82.5 39t65 57t47 68.5l138 -63q-25 -45 -60.5 -89.5t-88.5 -80.5t-127.5 -58.5t-178.5 -22.5q-134 0 -228 49.5t-145 143.5q-79 -101 -187.5 -144.5t-238.5 -43.5q-96 0 -174 28.5t-133 84t-85 136.5t-30 185zM254 416 q0 -82 18.5 -139t51.5 -92.5t78.5 -51t99.5 -15.5t106.5 11.5t99.5 48.5t86.5 107.5t66.5 187.5q14 60 19.5 110t7.5 100q0 77 -17 131t-49.5 88.5t-78.5 50.5t-103 16q-53 0 -106 -12.5t-101 -50.5t-88 -108t-67 -186q-13 -55 -18.5 -104.5t-5.5 -91.5zM1077 641h597 q2 20 3 37.5t1 34.5q0 66 -17.5 114.5t-49.5 80t-78 46.5t-102 15q-48 0 -101 -14.5t-101.5 -51.5t-88.5 -100.5t-63 -161.5z" />
<glyph unicode="&#x178;" horiz-adv-x="1366" d="M213 1409h196l306 -674l560 674h214l-704 -825l-113 -584h-190l115 584zM567 1530l35 184h175l-35 -184h-175zM951 1530l35 184h173l-35 -184h-173z" />
<glyph unicode="&#x2c6;" horiz-adv-x="682" d="M77 1201l4 20l286 270h204l171 -270l-4 -20h-92l-186 169h-2l-265 -169h-116z" />
<glyph unicode="&#x2dc;" horiz-adv-x="682" d="M53 1201q14 45 33 92.5t47.5 86.5t70 64t100.5 25q44 0 82 -18.5t72.5 -41t65.5 -41t61 -18.5q54 0 88 31.5t53 87.5h92q-14 -44 -32.5 -91.5t-47 -86.5t-70 -64.5t-101.5 -25.5q-42 0 -80 18.5t-72.5 41t-66.5 41t-63 18.5q-55 0 -88.5 -31t-53.5 -88h-90z" />
<glyph unicode="&#x2000;" horiz-adv-x="899" />
<glyph unicode="&#x2001;" horiz-adv-x="1798" />
<glyph unicode="&#x2002;" horiz-adv-x="899" />
<glyph unicode="&#x2003;" horiz-adv-x="1798" />
<glyph unicode="&#x2004;" horiz-adv-x="599" />
<glyph unicode="&#x2005;" horiz-adv-x="449" />
<glyph unicode="&#x2006;" horiz-adv-x="299" />
<glyph unicode="&#x2007;" horiz-adv-x="299" />
<glyph unicode="&#x2008;" horiz-adv-x="224" />
<glyph unicode="&#x2009;" horiz-adv-x="359" />
<glyph unicode="&#x200a;" horiz-adv-x="99" />
<glyph unicode="&#x2010;" horiz-adv-x="682" d="M105 464l31 160h500l-31 -160h-500z" />
<glyph unicode="&#x2011;" horiz-adv-x="682" d="M105 464l31 160h500l-31 -160h-500z" />
<glyph unicode="&#x2012;" horiz-adv-x="682" d="M105 464l31 160h500l-31 -160h-500z" />
<glyph unicode="&#x2013;" d="M-13 451l26 137h1138l-27 -137h-1137z" />
<glyph unicode="&#x2014;" horiz-adv-x="2048" d="M-13 451l26 137h2048l-27 -137h-2047z" />
<glyph unicode="&#x2018;" horiz-adv-x="455" d="M199 952l28 146q10 52 23.5 95t31 80.5t39 70.5t47.5 65h121q-58 -65 -95.5 -131t-50.5 -131h89l-38 -195h-195z" />
<glyph unicode="&#x2019;" horiz-adv-x="455" d="M192 952q57 65 94.5 131t50.5 129h-88l38 197h195l-28 -145q-10 -52 -23.5 -95.5t-30.5 -81t-38 -70.5t-47 -65h-123z" />
<glyph unicode="&#x201a;" horiz-adv-x="455" d="M-6 -260q57 65 94.5 131t50.5 129h-88l38 197h195l-28 -145q-10 -53 -23.5 -96t-30.5 -80.5t-38 -70.5t-47 -65h-123z" />
<glyph unicode="&#x201c;" horiz-adv-x="682" d="M148 952l28 146q10 52 23.5 95t31 80.5t39 70.5t47.5 65h121q-58 -65 -95.5 -131t-50.5 -131h89l-38 -195h-195zM480 952l28 146q10 52 23.5 95t30.5 80.5t38 70.5t47 65h122q-57 -65 -94.5 -131t-50.5 -131h88l-38 -195h-194z" />
<glyph unicode="&#x201d;" horiz-adv-x="682" d="M137 952q57 65 94.5 131t50.5 131h-88l38 195h195l-28 -145q-10 -52 -23.5 -95.5t-30.5 -81t-38 -70.5t-47 -65h-123zM469 952q57 65 94.5 131t50.5 131h-88l38 195h194l-28 -145q-10 -52 -23.5 -95.5t-30.5 -81t-38.5 -70.5t-47.5 -65h-121z" />
<glyph unicode="&#x201e;" horiz-adv-x="682" d="M-71 -262q57 65 94.5 131t50.5 131h-88l38 195h195l-28 -145q-10 -53 -23.5 -96t-30.5 -80.5t-38 -70.5t-47 -65h-123zM261 -262q57 65 94.5 131t50.5 131h-88l38 195h194l-28 -145q-10 -53 -23.5 -96t-30.5 -80.5t-38.5 -70.5t-47.5 -65h-121z" />
<glyph unicode="&#x2022;" horiz-adv-x="717" d="M97 682q0 57 21.5 107t59 87t87 58.5t106.5 21.5q58 0 109 -21.5t89.5 -58.5t60.5 -87t22 -107q0 -58 -22 -109t-60.5 -89t-89.5 -60.5t-109 -22.5q-57 0 -106.5 22.5t-87 60.5t-59 89t-21.5 109z" />
<glyph unicode="&#x2026;" horiz-adv-x="2048" d="M186 0l43 219h195l-43 -219h-195zM837 0l43 219h192l-43 -219h-192zM1484 0l43 219h194l-43 -219h-194z" />
<glyph unicode="&#x202f;" horiz-adv-x="359" />
<glyph unicode="&#x2039;" horiz-adv-x="682" d="M86 506l12 63l408 371h157l-9 -40l-407 -372l265 -367l-2 -20h-159z" />
<glyph unicode="&#x203a;" horiz-adv-x="682" d="M16 141l8 39l410 367l-264 372l3 21h156l265 -371l-12 -63l-408 -365h-158z" />
<glyph unicode="&#x205f;" horiz-adv-x="449" />
<glyph unicode="&#x20ac;" d="M19 502l64 129h112q3 35 8.5 72t13.5 76q1 4 2 9t2 7h-146l65 127h113q78 257 225.5 382t352.5 126q87 0 155 -21.5t117.5 -61t80.5 -96t44 -125.5l-171 -35q-26 91 -83.5 140.5t-148.5 51.5q-52 1 -106 -10t-105.5 -48.5t-98 -109.5t-82.5 -193h464l-65 -127h-430 q-1 -5 -1.5 -8.5t-1.5 -7.5q-8 -39 -13.5 -76t-8.5 -72h463l-65 -129h-404q1 -86 17 -156t48 -119t80 -75.5t114 -26.5q106 0 172.5 52.5t108.5 149.5l152 -48q-27 -66 -67 -120.5t-95 -94t-125 -61t-157 -21.5q-93 0 -171 32t-134.5 96.5t-89 162t-34.5 229.5h-171z" />
<glyph unicode="&#x2122;" horiz-adv-x="2048" d="M188 1298v111h650v-111h-261v-664h-134v664h-255zM963 634v775h190l223 -563q2 -3 4.5 -10t4.5 -14l6 -18q20 51 36 92q7 18 13.5 35t12 31t9 23t3.5 11l168 413h184v-775h-126v425v194l-8 -22q-4 -9 -7 -18t-5 -14l-230 -565h-108l-163 413q-1 2 -4.5 12.5t-9 25.5 t-12.5 33t-14 37q-17 44 -37 98q0 -10 -1 -20q-1 -8 -1 -16.5v-15.5v-567h-128z" />
<glyph unicode="&#xe000;" horiz-adv-x="1080" d="M0 0v1080h1080v-1080h-1080z" />
</font>
</defs>
</svg>
