<?xml version="1.0" standalone="no"?>
<!DOCTYPE svg PUBLIC "-//W3C//DTD SVG 1.1//EN" "http://www.w3.org/Graphics/SVG/1.1/DTD/svg11.dtd" >
<svg xmlns="http://www.w3.org/2000/svg">
<metadata></metadata>
<defs>
<font id="liberation_sansregular" horiz-adv-x="1139" >
<font-face units-per-em="2048" ascent="1638" descent="-410" />
<missing-glyph horiz-adv-x="569" />
<glyph horiz-adv-x="2048" />
<glyph horiz-adv-x="2048" />
<glyph unicode="&#xd;" horiz-adv-x="569" />
<glyph unicode=" "  horiz-adv-x="569" />
<glyph unicode="&#x09;" horiz-adv-x="569" />
<glyph unicode="&#xa0;" horiz-adv-x="569" />
<glyph unicode="!" horiz-adv-x="569" d="M185 0v201h194v-201h-194zM187 1409h196l-24 -1012h-148z" />
<glyph unicode="&#x22;" horiz-adv-x="727" d="M87 1409h184l-22 -443h-141zM456 1409h184l-22 -443h-142z" />
<glyph unicode="#" d="M9 408v108h225l78 369h-252v108h274l89 408h110l-88 -408h363l88 408h110l-88 -408h211v-108h-233l-78 -369h260v-108h-283l-88 -408h-110l86 408h-363l-84 -408h-110l84 408h-201zM345 516h362l78 369h-360z" />
<glyph unicode="$" d="M22 379l170 37q11 -53 34 -96.5t62 -75.5t95.5 -51.5t134.5 -24.5v496l-20 5q-77 18 -151 43t-132 66.5t-93.5 105.5t-35.5 162q0 84 32 146t89.5 103.5t136.5 63.5t174 26v131h124v-131q100 -5 172.5 -27.5t123.5 -62.5t84 -97.5t53 -132.5l-174 -33q-20 94 -81 146.5 t-178 63.5v-445q59 -14 116 -29t108.5 -35.5t95.5 -48.5t76 -67.5t50 -94t18 -126.5q0 -77 -28 -142.5t-85 -115.5t-144.5 -81t-206.5 -37v-162h-124v162q-217 9 -339.5 101.5t-156.5 257.5zM258 1048q0 -54 20 -91t55 -62t82.5 -41.5t102.5 -30.5v421q-72 -4 -122 -20.5 t-80.5 -42.5t-44 -60t-13.5 -73zM642 167q65 4 119 19.5t92.5 43.5t59.5 68.5t21 95.5q0 63 -23.5 103t-64 65.5t-93.5 41.5t-111 31v-468z" />
<glyph unicode="%" horiz-adv-x="1821" d="M73 975q0 131 24.5 217t67.5 137t102 71.5t127 20.5q64 0 121 -20.5t100 -71.5t67.5 -137t24.5 -217q0 -126 -25 -212t-67.5 -139.5t-100.5 -76.5t-124 -23q-67 0 -125 23t-100.5 76t-67 139t-24.5 213zM220 975q0 -95 11.5 -160t33 -104.5t53.5 -56.5t74 -17q38 0 69 17 t53 56.5t34 104.5t12 160q0 98 -11 163t-32 104t-52 55t-71 16q-43 0 -75.5 -16.5t-54.5 -55.5t-33 -104t-11 -162zM372 0l922 1409h157l-924 -1409h-155zM1113 434q0 133 24 220t67 138.5t101.5 72t126.5 20.5q66 0 123.5 -20.5t100 -72t67.5 -138.5t25 -220 q0 -125 -25.5 -210.5t-69 -138t-101.5 -75t-124 -22.5t-123.5 22.5t-100 74.5t-67 137.5t-24.5 211.5zM1260 434q0 -95 11.5 -159t33 -103.5t53 -56.5t72.5 -17q39 0 70.5 17t53.5 56.5t34 103.5t12 159q0 99 -11 164.5t-32.5 104.5t-53 55t-71.5 16q-42 0 -74 -16.5 t-54 -55.5t-33 -104.5t-11 -163.5z" />
<glyph unicode="&#x26;" horiz-adv-x="1366" d="M72 371q0 79 25.5 143.5t71 117t108.5 94t138 74.5q-18 34 -32.5 72.5t-25.5 77.5t-17 78t-6 74q0 66 20 123.5t62.5 100t109 67t159.5 24.5q73 0 134.5 -19t106.5 -55t70 -89t25 -121q0 -75 -33 -133.5t-89 -104.5t-130 -83.5t-157 -70.5q62 -114 135 -214.5t158 -197.5 q61 90 101.5 189.5t69.5 220.5l145 -43q-35 -139 -88.5 -252.5t-123.5 -216.5q53 -54 106 -76t102 -22q32 0 61.5 3.5t55.5 12.5v-135q-28 -11 -65.5 -16.5t-75.5 -5.5q-96 0 -168 33t-130 94q-30 -26 -68 -50t-84.5 -43t-101 -30.5t-118.5 -11.5q-117 0 -202.5 30 t-140.5 82.5t-81.5 124t-26.5 154.5zM240 373q0 -55 17.5 -102.5t53.5 -83t90.5 -56t127.5 -20.5q44 0 83.5 9.5t73.5 24.5t61.5 34t47.5 38q-89 105 -171 220t-148 237q-113 -48 -174.5 -122t-61.5 -179zM487 1102q0 -59 18.5 -123.5t46.5 -120.5q65 26 123 53.5t101 60 t68 72t25 89.5q0 37 -13.5 67t-37.5 51.5t-58.5 33t-76.5 11.5q-96 0 -146 -51.5t-50 -142.5z" />
<glyph unicode="'" horiz-adv-x="391" d="M104 1409h184l-22 -443h-141z" />
<glyph unicode="(" horiz-adv-x="682" d="M127 528v4q0 139 21 266t66 244t115 227t167 215h174q-94 -105 -162.5 -215.5t-112.5 -228t-65.5 -244.5t-21.5 -266t21.5 -266t65.5 -245t112.5 -228t162.5 -215h-174q-97 105 -167 215t-115 227t-66 243.5t-21 266.5z" />
<glyph unicode=")" horiz-adv-x="682" d="M12 -424q94 105 162.5 215t112.5 228t65.5 245t21.5 266t-21.5 266t-65.5 244.5t-112.5 228t-162.5 215.5h174q97 -105 167 -215t115 -227t66 -244t21 -266v-4q0 -140 -21 -266.5t-66 -243.5t-115 -227t-167 -215h-174z" />
<glyph unicode="*" horiz-adv-x="797" d="M33 1085l45 134l267 -107l-12 297h136l-13 -295l264 103l45 -132l-282 -73l185 -250l-119 -72l-150 258l-156 -256l-119 72l189 248z" />
<glyph unicode="+" horiz-adv-x="1196" d="M100 608v146h424v428h147v-428h424v-146h-424v-428h-147v428h-424z" />
<glyph unicode="," horiz-adv-x="569" d="M184 -262q45 65 69.5 131t24.5 131h-88v219h195v-168q0 -53 -4.5 -96.5t-14.5 -81t-24.5 -70.5t-34.5 -65h-123z" />
<glyph unicode="-" horiz-adv-x="682" d="M91 464v160h500v-160h-500z" />
<glyph unicode="." horiz-adv-x="569" d="M187 0v219h195v-219h-195z" />
<glyph unicode="/" horiz-adv-x="569" d="M0 -20l411 1504h158l-407 -1504h-162z" />
<glyph unicode="0" d="M80 705q0 213 37.5 352.5t103.5 222.5t156 116.5t196 33.5q101 0 189.5 -33.5t154.5 -116.5t104 -222.5t38 -352.5q0 -203 -38.5 -341.5t-105 -224t-156.5 -122.5t-192 -37q-103 0 -192 37t-154.5 122t-103 223.5t-37.5 342.5zM262 705q0 -162 20.5 -273t60 -178.5 t96.5 -97t130 -29.5q71 0 128 29.5t96.5 97t61 178.5t21.5 273q0 168 -20 279.5t-59 178t-95.5 94t-128.5 27.5q-76 0 -134 -28t-97.5 -94.5t-59.5 -178t-20 -278.5z" />
<glyph unicode="1" d="M156 0v153h359v1084l-318 -227v170l333 229h166v-1256h343v-153h-883z" />
<glyph unicode="2" d="M103 0v127q51 117 124.5 206.5t154.5 162t160.5 134.5t143.5 124t103.5 130t39.5 154q0 60 -18 105.5t-52 76.5t-81.5 46.5t-105.5 15.5q-54 0 -101.5 -15t-84.5 -45t-60.5 -74.5t-30.5 -103.5l-184 17q9 76 42 143t91 117.5t139.5 79.5t188.5 29q105 0 187 -25 t138.5 -74t86.5 -121t30 -166q0 -71 -25.5 -135t-68 -122t-98.5 -112t-117 -105.5t-123 -102t-116.5 -101.5t-97.5 -103.5t-67 -109.5h735v-153h-933z" />
<glyph unicode="3" d="M78 362l186 17q8 -56 29.5 -102t58.5 -79t91 -51t128 -18q136 0 213.5 67t77.5 199q0 78 -34.5 125.5t-86 74t-112 35.5t-111.5 9h-102v156h98q51 0 106 10.5t100.5 38t75 74.5t29.5 120q0 113 -66.5 178.5t-197.5 65.5q-119 0 -192.5 -61t-85.5 -172l-181 14 q11 93 51 162t101.5 114.5t140.5 68t168 22.5q118 0 203 -29.5t139 -80t79.5 -118.5t25.5 -145q0 -62 -17 -116t-53 -97t-91.5 -74t-133.5 -47v-4q85 -9 148 -38.5t104 -73.5t61.5 -100t20.5 -118q0 -97 -31.5 -173t-92 -128.5t-150 -80t-204.5 -27.5q-131 0 -220.5 32.5 t-147.5 86t-87 122t-38 141.5z" />
<glyph unicode="4" d="M47 319v140l645 950h189v-948h198v-142h-198v-319h-170v319h-664zM213 461h498v745q-2 -5 -10 -19.5t-18 -32.5t-20.5 -36.5t-18.5 -30.5l-361 -532q-5 -8 -14.5 -21t-19.5 -26.5t-20 -26.5t-16 -20z" />
<glyph unicode="5" d="M82 315l182 21q11 -40 31 -77.5t54.5 -67t85 -47t122.5 -17.5q70 0 127 21.5t97.5 63.5t62.5 103t22 140q0 65 -21 119.5t-60 94t-95.5 61.5t-128.5 22q-45 0 -83 -8t-70.5 -22t-59 -32.5t-49.5 -38.5h-176l47 758h801v-153h-637l-27 -447q48 37 120 63.5t171 26.5 q105 0 189 -32t143 -90.5t91 -139.5t32 -178q0 -106 -32 -194t-95 -151.5t-156.5 -98.5t-216.5 -35q-111 0 -193.5 26t-139.5 71.5t-90.5 106.5t-47.5 131z" />
<glyph unicode="6" d="M104 672q0 188 34.5 330t99.5 237t158.5 143t211.5 48q72 0 135 -15t114.5 -48.5t90.5 -88.5t62 -135l-172 -31q-28 91 -89.5 131.5t-142.5 40.5q-74 0 -134 -35t-102 -104.5t-64.5 -174.5t-22.5 -245q49 91 138 138.5t204 47.5q96 0 174 -31t133.5 -89.5t86 -142 t30.5 -187.5q0 -106 -29.5 -194.5t-87 -152t-142.5 -99t-196 -35.5q-123 0 -215 47t-153 135.5t-91.5 217t-30.5 292.5zM301 496q0 -78 20 -145.5t57.5 -117.5t90.5 -79t119 -29q65 0 116.5 22.5t87.5 65t55 103.5t19 137q0 73 -18 132t-54 100.5t-89 64t-123 22.5 q-49 0 -99 -14.5t-90.5 -47t-66 -85.5t-25.5 -129z" />
<glyph unicode="7" d="M105 1256v153h931v-146q-106 -162 -195 -311.5t-153 -301t-99.5 -311t-35.5 -339.5h-188q0 169 40 331.5t108 319t158 307.5t191 298h-757z" />
<glyph unicode="8" d="M89 391q0 77 23.5 137t63 103.5t90 70t104.5 35.5v4q-59 14 -105.5 45t-78 74.5t-48 96.5t-16.5 112q0 74 28.5 139.5t84.5 115t139 78t192 28.5q115 0 199.5 -29t140 -78.5t82.5 -115.5t27 -140q0 -58 -16.5 -111t-48 -96.5t-78 -74t-107.5 -42.5v-4q61 -10 113 -36.5 t90 -70t60 -103.5t22 -136q0 -90 -28.5 -165.5t-87 -130.5t-149.5 -86t-215 -31t-214.5 31t-150 85.5t-88 130t-28.5 164.5zM275 406q0 -65 16 -118.5t51 -92t92 -59.5t138 -21q82 0 138 21t90 59.5t48.5 93t14.5 121.5q0 51 -14 98.5t-48 84t-91.5 59t-143.5 22.5 q-79 0 -134.5 -22.5t-90 -59.5t-50.5 -85.5t-16 -100.5zM306 1057q0 -42 11 -86t40 -80t80 -59t131 -23q85 0 136.5 23t79 59t36 80t8.5 86q0 53 -13.5 97t-44.5 75.5t-81 49t-123 17.5q-71 0 -120 -17.5t-80.5 -49t-45.5 -75.5t-14 -97z" />
<glyph unicode="9" d="M96 956q0 109 31.5 197t91.5 149.5t147.5 94.5t198.5 33q235 0 356 -174t121 -523q0 -188 -35.5 -329.5t-101.5 -235.5t-160.5 -141t-212.5 -47q-81 0 -146 16.5t-116 51.5t-87 91t-58 135l172 27q28 -91 87.5 -133.5t150.5 -42.5q73 0 133.5 34.5t103 103.5t66.5 173 t26 244q-21 -47 -57.5 -84t-83 -62.5t-100.5 -39t-109 -13.5q-96 0 -173.5 34.5t-131.5 96.5t-83.5 149.5t-29.5 194.5zM279 956q0 -71 17.5 -132t52.5 -105.5t87 -70t121 -25.5q50 0 101.5 17t93 52t68 88.5t26.5 126.5q0 78 -18.5 147t-55 120t-90 80.5t-123.5 29.5 q-65 0 -117 -23t-88 -65.5t-55.5 -103.5t-19.5 -136z" />
<glyph unicode=":" horiz-adv-x="569" d="M187 0v207h195v-207h-195zM187 875v207h195v-207h-195z" />
<glyph unicode=";" horiz-adv-x="569" d="M184 -262q45 65 69.5 131t24.5 131h-88v207h195v-156q0 -53 -4.5 -96.5t-14.5 -81t-24.5 -70.5t-34.5 -65h-123zM190 875v207h195v-207h-195z" />
<glyph unicode="&#x3c;" horiz-adv-x="1196" d="M101 571v205l995 418v-154l-858 -366l858 -367v-153z" />
<glyph unicode="=" horiz-adv-x="1196" d="M100 344v148h995v-148h-995zM100 856v148h995v-148h-995z" />
<glyph unicode="&#x3e;" horiz-adv-x="1196" d="M101 154v153l858 367l-858 366v154l995 -418v-205z" />
<glyph unicode="?" d="M84 1020q11 84 44.5 158.5t94 130.5t150 88.5t211.5 32.5q114 0 203 -28t150.5 -79.5t93.5 -125.5t32 -165q0 -71 -18.5 -125t-49.5 -96.5t-70.5 -76t-80.5 -63.5t-80.5 -59t-71 -63t-51 -75.5t-20.5 -96.5h-175q2 69 21.5 121t50.5 92t70 71.5t79 60t78.5 57t68.5 63.5 t48.5 79t18.5 103t-21 105t-59.5 77.5t-93 47.5t-121.5 16q-140 0 -222 -70t-96 -192zM438 0v201h195v-201h-195z" />
<glyph unicode="@" horiz-adv-x="2079" d="M161 491q0 139 31.5 267t90.5 238t144 200t192.5 154t235 99t271.5 35q201 0 347 -59t241.5 -159t141.5 -232t46 -279q0 -144 -33.5 -263.5t-92.5 -205.5t-141.5 -134t-179.5 -48q-56 0 -95.5 13.5t-64.5 37t-36 55.5t-11 70q0 15 1 36.5t2 33.5h-6q-24 -45 -58.5 -89.5 t-81 -79t-105 -56t-129.5 -21.5q-84 0 -146.5 29t-103 80.5t-60.5 122t-20 153.5q0 120 35.5 230.5t101.5 195t158.5 135.5t206.5 51q60 0 108 -13.5t84.5 -37.5t63.5 -57.5t45 -73.5h6l39 160h156l-116 -506q-19 -84 -28 -144t-9 -109q0 -48 21.5 -71t59.5 -23 q62 0 115.5 40.5t93 111.5t62 167t22.5 208q0 129 -41.5 240t-122 192t-199.5 127t-275 46q-134 0 -247.5 -32t-205.5 -90t-161.5 -138.5t-116.5 -176.5t-71 -205.5t-24 -224.5q0 -141 43 -260t125.5 -204.5t204 -133.5t279.5 -48q105 0 196 16.5t167 40.5t136 52.5 t104 52.5l55 -112q-50 -30 -117.5 -61.5t-150.5 -57.5t-181 -42.5t-209 -16.5q-190 0 -337.5 57.5t-249 160.5t-154 245t-52.5 311zM706 491q0 -120 47.5 -188t146.5 -68q69 0 129 31t108 82t83 117t53 137q9 36 16 76t7 69q0 50 -17 92t-48.5 72t-76 46.5t-100.5 16.5 q-86 0 -151 -42.5t-108.5 -111.5t-66 -155.5t-22.5 -173.5z" />
<glyph unicode="A" horiz-adv-x="1366" d="M4 0l575 1409h217l566 -1409h-195l-161 412h-642l-162 -412h-198zM422 561h527l-181 465q-16 40 -30.5 81t-25.5 74.5t-18.5 56t-8.5 27.5q-2 -5 -9 -28t-18.5 -57t-26 -75t-29.5 -81z" />
<glyph unicode="B" horiz-adv-x="1366" d="M168 0v1409h512q117 0 209 -19.5t156 -61.5t97.5 -106.5t33.5 -154.5q0 -59 -16.5 -111t-50 -94.5t-84 -73t-117.5 -45.5q85 -10 150.5 -39t109.5 -74t67 -104.5t23 -128.5q0 -107 -42 -182.5t-113 -123t-165 -69.5t-198 -22h-572zM359 153h371q73 0 134.5 12t106 42 t69.5 80t25 125q0 67 -24.5 114t-70.5 77t-110.5 44t-144.5 14h-356v-508zM359 810h321q84 0 142 16.5t94 47t52 73.5t16 97q0 114 -78 163t-226 49h-321v-446z" />
<glyph unicode="C" horiz-adv-x="1479" d="M104 711q0 165 45.5 298t133 226.5t215.5 144t292 50.5q225 0 376 -88t222 -261l-181 -60q-20 50 -54 95.5t-85 80.5t-119.5 56t-156.5 21q-120 0 -212.5 -40t-155 -114t-94.5 -178t-32 -231t34.5 -232.5t99 -181.5t158 -118t210.5 -42q82 0 149.5 21.5t122 60.5 t97.5 92.5t76 118.5l156 -78q-38 -79 -94 -147t-131.5 -118t-171 -78.5t-213.5 -28.5q-171 0 -299.5 54.5t-215 152t-129.5 231.5t-43 293z" />
<glyph unicode="D" horiz-adv-x="1479" d="M168 0v1409h466q163 0 300.5 -40.5t236.5 -125t154.5 -214.5t55.5 -310q0 -176 -53 -310.5t-145 -225t-217.5 -137t-270.5 -46.5h-527zM359 153h314q111 0 205.5 36t163.5 107t108 177t39 246q0 143 -41 244.5t-115 166.5t-177 95.5t-226 30.5h-271v-1103z" />
<glyph unicode="E" horiz-adv-x="1366" d="M168 0v1409h1069v-156h-878v-452h818v-154h-818v-491h919v-156h-1110z" />
<glyph unicode="F" horiz-adv-x="1251" d="M168 0v1409h1001v-156h-810v-524h786v-158h-786v-571h-191z" />
<glyph unicode="G" horiz-adv-x="1593" d="M103 711q0 165 44.5 298t133 226.5t219.5 144t304 50.5q130 0 228 -23t170 -66t122 -104.5t85 -138.5l-182 -54q-26 52 -62.5 94.5t-88.5 72.5t-120.5 46.5t-156.5 16.5q-128 0 -222.5 -40t-156.5 -114t-92.5 -178t-30.5 -231t33 -232.5t98 -182t161.5 -119t223.5 -42.5 q83 0 153 14t126.5 36.5t99.5 50t72 55.5v254h-421v160h597v-486q-47 -48 -110.5 -91.5t-142.5 -76.5t-173 -52t-201 -19q-178 0 -311 54.5t-221.5 152t-133 231.5t-44.5 293z" />
<glyph unicode="H" horiz-adv-x="1479" d="M168 0v1409h191v-596h762v596h191v-1409h-191v653h-762v-653h-191z" />
<glyph unicode="I" horiz-adv-x="569" d="M189 0v1409h191v-1409h-191z" />
<glyph unicode="J" horiz-adv-x="1024" d="M32 350l187 31q10 -65 33 -111.5t55 -76.5t71 -44t80 -14q104 0 164 71.5t60 209.5v837h-271v156h461v-989q0 -101 -28 -182t-81.5 -138.5t-130.5 -88.5t-175 -31q-171 0 -280.5 89t-144.5 281z" />
<glyph unicode="K" horiz-adv-x="1366" d="M168 0v1409h191v-706l679 706h225l-600 -612l680 -797h-237l-563 680l-184 -140v-540h-191z" />
<glyph unicode="L" d="M168 0v1409h191v-1253h712v-156h-903z" />
<glyph unicode="M" horiz-adv-x="1706" d="M168 0v1409h251l375 -977q7 -20 17 -51.5t19 -64.5t16.5 -62.5t10.5 -45.5q3 16 11 46t18.5 63t20.5 64t18 51l368 977h245v-1409h-172v940q0 51 1 104t3 97q2 51 5 99q-14 -51 -29 -101q-13 -43 -28.5 -91.5t-30.5 -87.5l-364 -960h-134l-369 960q-6 15 -12.5 35 t-14 42.5t-15 46t-14.5 46.5q-17 53 -33 110q1 -56 3 -111q2 -47 3 -98.5t1 -90.5v-940h-170z" />
<glyph unicode="N" horiz-adv-x="1479" d="M168 0v1409h222l762 -1208l-6 98q-2 42 -4 91.5t-2 94.5v924h172v-1409h-230l-754 1200q2 -49 5 -97q2 -41 3.5 -86.5t1.5 -80.5v-936h-170z" />
<glyph unicode="O" horiz-adv-x="1593" d="M97 711q0 165 46 298t135 226.5t219.5 144t299.5 50.5q168 0 298.5 -51t219 -145t134.5 -227t46 -296q0 -165 -47.5 -300t-137.5 -231t-220 -148t-295 -52q-174 0 -305 54.5t-218 152t-131 231.5t-44 293zM291 711q0 -127 32.5 -232.5t96 -182t158 -119t217.5 -42.5 q132 0 227.5 43t157 119.5t91 182.5t29.5 231q0 127 -32.5 231t-96 178t-157.5 114t-217 40q-126 0 -221 -40t-158.5 -114t-95 -178t-31.5 -231z" />
<glyph unicode="P" horiz-adv-x="1366" d="M168 0v1409h593q125 0 218 -30.5t155 -86t93 -134t31 -173.5q0 -92 -30.5 -171.5t-91 -138t-151.5 -92.5t-212 -34h-414v-549h-191zM359 700h387q165 0 242.5 73t77.5 210q0 134 -82 203.5t-246 69.5h-379v-556z" />
<glyph unicode="Q" horiz-adv-x="1593" d="M97 711q0 165 46 298t135 226.5t219.5 144t299.5 50.5q168 0 298.5 -51t219 -145t134.5 -227t46 -296q0 -149 -38.5 -272.5t-111 -216.5t-178 -151.5t-239.5 -76.5q21 -64 47.5 -109t60.5 -73.5t75.5 -42t92.5 -13.5q28 0 60 4t55 9v-134q-38 -9 -83.5 -15.5t-94.5 -6.5 q-86 0 -150 25.5t-112.5 73t-83.5 116.5t-62 156q-158 8 -277.5 65.5t-199 154t-119.5 226t-40 281.5zM291 711q0 -127 32.5 -232.5t96 -182t158 -119t217.5 -42.5q132 0 227.5 43t157 119.5t91 182.5t29.5 231q0 127 -32.5 231t-96 178t-157.5 114t-217 40q-126 0 -221 -40 t-158.5 -114t-95 -178t-31.5 -231z" />
<glyph unicode="R" horiz-adv-x="1479" d="M168 0v1409h663q120 0 212.5 -27.5t155.5 -79.5t96 -127t33 -169q0 -67 -19.5 -132t-61.5 -119t-107 -93t-156 -55l400 -607h-220l-366 585h-439v-585h-191zM359 736h461q82 0 142 20.5t98.5 56.5t57 85t18.5 106q0 64 -22 111t-64 78.5t-102 47t-136 15.5h-453v-520z " />
<glyph unicode="S" horiz-adv-x="1366" d="M93 338l185 37q14 -55 43 -100t78.5 -77.5t122.5 -50.5t175 -18q85 0 156 14.5t122 44.5t79.5 77.5t28.5 113.5q0 69 -31.5 112t-88.5 71t-136 47t-175 41q-59 13 -118.5 28.5t-114 37t-102.5 50.5t-83 69.5t-55 94t-20 123.5q0 100 40.5 171.5t112.5 117.5t170 67 t212 21q131 0 224 -20.5t157 -61.5t102.5 -101.5t61.5 -140.5l-188 -33q-14 51 -40.5 91t-69.5 67t-104.5 41t-144.5 14q-98 0 -164.5 -17.5t-107 -47.5t-58 -70.5t-17.5 -87.5q0 -63 31.5 -103.5t85.5 -67.5t125 -45t151 -36q65 -15 129.5 -30.5t123.5 -37t110.5 -50.5 t89.5 -71t59.5 -99t21.5 -134q0 -89 -34.5 -164t-106.5 -129.5t-181.5 -85t-259.5 -30.5q-263 0 -410 92t-187 266z" />
<glyph unicode="T" horiz-adv-x="1251" d="M46 1253v156h1158v-156h-484v-1253h-190v1253h-484z" />
<glyph unicode="U" horiz-adv-x="1479" d="M158 512v897h191v-881q0 -107 28.5 -181.5t79.5 -121.5t120.5 -68.5t152.5 -21.5q82 0 155 22t128 70t86.5 125.5t31.5 188.5v868h190v-879q0 -141 -46.5 -244.5t-126.5 -171.5t-187.5 -101t-229.5 -33q-116 0 -220 31t-182.5 96.5t-124.5 166t-46 238.5z" />
<glyph unicode="V" horiz-adv-x="1366" d="M9 1409h201l390 -992q15 -45 30 -89.5t27 -79.5q14 -41 27 -80q12 37 26 78q12 35 26.5 79t31.5 92l388 992h201l-575 -1409h-198z" />
<glyph unicode="W" horiz-adv-x="1933" d="M9 1409h199l253 -895q17 -63 32.5 -125t26.5 -111q13 -58 24 -110q15 69 31 136q7 28 14 59t14.5 61t15 57.5t13.5 50.5l245 877h183l245 -877q6 -23 13.5 -50.5t15 -57t14.5 -60.5t14 -59q16 -67 31 -137q1 0 9 34.5t20 86.5t26.5 112.5t29.5 112.5l249 895h199 l-415 -1409h-228l-244 895q-11 38 -23.5 90t-22.5 99q-12 55 -24 112q-13 -58 -25 -113q-11 -48 -23 -99t-23 -89l-246 -895h-228z" />
<glyph unicode="X" horiz-adv-x="1366" d="M46 0l536 732l-495 677h211l392 -553l381 553h211l-482 -670l523 -739h-211l-423 616l-432 -616h-211z" />
<glyph unicode="Y" horiz-adv-x="1366" d="M45 1409h210l429 -671l427 671h210l-544 -825v-584h-190v584z" />
<glyph unicode="Z" horiz-adv-x="1251" d="M65 0v143l858 1110h-785v156h1002v-139l-858 -1114h905v-156h-1122z" />
<glyph unicode="[" horiz-adv-x="569" d="M146 -425v1909h407v-129h-233v-1651h233v-129h-407z" />
<glyph unicode="\" horiz-adv-x="569" d="M0 1484h158l411 -1504h-162z" />
<glyph unicode="]" horiz-adv-x="569" d="M16 -296h233v1651h-233v129h407v-1909h-407v129z" />
<glyph unicode="^" horiz-adv-x="961" d="M10 673l368 736h203l370 -736h-164l-309 633l-306 -633h-162z" />
<glyph unicode="_" d="M-31 -277h1193v-130h-1193v130z" />
<glyph unicode="`" horiz-adv-x="682" d="M106 1479v29h207l217 -287v-20h-94z" />
<glyph unicode="a" d="M87 302q0 107 40.5 175.5t106 107.5t149.5 54t171 17l243 4v59q0 67 -14 114t-43 76t-72.5 42.5t-102.5 13.5q-52 0 -94 -7.5t-73 -27t-50 -53t-25 -84.5l-188 17q10 64 38 117.5t79.5 92.5t129 60.5t187.5 21.5q204 0 307 -93.5t103 -270.5v-466q0 -80 21 -120.5 t80 -40.5q15 0 30 2t29 5v-112q-34 -8 -67.5 -12t-71.5 -4q-51 0 -87.5 13.5t-59.5 41t-35 68t-15 94.5h-6q-29 -52 -63.5 -94t-80.5 -71.5t-104.5 -45.5t-134.5 -16q-163 0 -245 86t-82 236zM272 299q0 -88 47.5 -136t135.5 -48q86 0 150.5 31.5t107 80.5t63.5 107t21 111 v89l-197 -4q-66 -1 -125.5 -9.5t-104.5 -33.5t-71.5 -70t-26.5 -118z" />
<glyph unicode="b" d="M132 0q1 9 2 30.5t2 51.5t1.5 66t0.5 75v1261h180v-423q0 -30 -0.5 -57.5t-1.5 -48.5q-1 -25 -2 -47h4q50 104 132.5 149t204.5 45q205 0 301.5 -138t96.5 -418q0 -566 -398 -566q-123 0 -204.5 44.5t-132.5 143.5h-2q0 -26 -1.5 -54t-3 -52t-3 -41t-2.5 -21h-174z M318 529q0 -116 19 -195t55.5 -128.5t90.5 -71t124 -21.5q66 0 114 23t80 74t47.5 132.5t15.5 197.5q0 112 -14 192t-45 131.5t-79 75.5t-117 24q-71 0 -125.5 -23t-91 -74t-55.5 -134t-19 -203z" />
<glyph unicode="c" horiz-adv-x="1024" d="M87 542q0 109 18 192.5t50.5 146t76.5 105t95.5 68t108.5 37t115 11.5q91 0 162 -25t122.5 -68.5t83.5 -102.5t45 -127l-185 -14q-14 90 -71 143t-162 53q-77 0 -128.5 -25.5t-83.5 -77t-45.5 -129.5t-13.5 -183q0 -93 13.5 -171t45.5 -134.5t84.5 -87.5t129.5 -31 q96 0 160.5 52t79.5 160l182 -12q-9 -67 -39 -129t-81.5 -109t-125.5 -75.5t-171 -28.5q-127 0 -216 43t-144.5 118.5t-80.5 178t-25 222.5z" />
<glyph unicode="d" d="M86 536q0 566 398 566q123 0 205 -45t132 -143h2q0 10 -0.5 31.5t-1 45t-0.5 44.5v30v419h180v-1261q0 -39 0.5 -75t1.5 -66t2 -51.5t2 -30.5h-172q-2 10 -3.5 28.5t-3 42.5t-2.5 50.5t-1 52.5h-4q-50 -104 -132.5 -149t-204.5 -45q-205 0 -301.5 138t-96.5 418zM275 542 q0 -112 14 -192t45 -131.5t79 -75.5t117 -24q71 0 125.5 23t91 74.5t55.5 134.5t19 203q0 115 -19 194.5t-56 128.5t-90.5 70.5t-123.5 21.5q-66 0 -114 -23t-80 -74t-47.5 -132.5t-15.5 -197.5z" />
<glyph unicode="e" d="M87 548q0 152 38 257.5t104 171.5t154 95.5t188 29.5q136 0 227.5 -44t147 -121.5t79 -182.5t23.5 -227v-24h-772q0 -85 17.5 -156.5t54 -123t93.5 -80t137 -28.5q117 0 187.5 47t95.5 119l158 -45q-17 -45 -47.5 -90.5t-81.5 -82t-127.5 -60t-184.5 -23.5 q-240 0 -365.5 143t-125.5 425zM278 641h584q-15 171 -87 249.5t-207 78.5q-45 0 -94.5 -14.5t-91.5 -51.5t-71 -100.5t-33 -161.5z" />
<glyph unicode="f" horiz-adv-x="569" d="M29 951v131h152v122q0 59 11 109.5t40.5 88t80.5 59t132 21.5q32 0 66.5 -3t60.5 -9v-137q-17 3 -39.5 5.5t-40.5 2.5q-40 0 -65.5 -11t-40 -31.5t-20 -50.5t-5.5 -69v-97h211v-131h-211v-951h-180v951h-152z" />
<glyph unicode="g" d="M86 539q0 130 21.5 234t70 176.5t126 111t188.5 38.5q115 0 199.5 -52.5t130.5 -149.5h2q0 25 1.5 56t3 58.5t3.5 47.5t4 23h171q-1 -9 -2 -30.5t-2 -51.5t-1.5 -66.5t-0.5 -75.5v-827q0 -227 -111.5 -341.5t-341.5 -114.5q-93 0 -165 19t-123 54.5t-83 84.5t-46 109 l181 26q18 -75 79.5 -115.5t161.5 -40.5q61 0 111 17t85 54.5t54 97.5t19 146v174h-2q-20 -41 -49.5 -78.5t-72 -66.5t-98.5 -46.5t-128 -17.5q-103 0 -176.5 34.5t-120 103.5t-68 171.5t-21.5 237.5zM272 541q0 -117 15.5 -196.5t47.5 -128.5t81 -70t117 -21q54 0 105.5 23 t92.5 73t66 129t25 191q0 113 -24.5 193.5t-64.5 131.5t-91.5 75t-105.5 24q-69 0 -118.5 -24t-82 -75.5t-48 -132t-15.5 -192.5z" />
<glyph unicode="h" d="M142 0v1484h180v-386q0 -33 -1 -66t-2.5 -61t-2.5 -47.5t-2 -26.5h3q30 55 65 93.5t77 63.5t92 36.5t112 11.5q104 0 170.5 -28t105 -78.5t53 -120.5t14.5 -154v-721h-181v686q0 69 -8.5 121t-32.5 86.5t-68 52t-114 17.5q-64 0 -115.5 -23t-88 -65t-56.5 -102t-20 -135 v-638h-180z" />
<glyph unicode="i" horiz-adv-x="455" d="M137 0v1082h180v-1082h-180zM137 1312v172h180v-172h-180z" />
<glyph unicode="j" horiz-adv-x="455" d="M-50 -277q13 -2 31 -4t31 -2q38 0 62.5 10t38.5 31.5t19 55t5 79.5v1189h180v-1216q0 -62 -10.5 -115t-37.5 -92t-73.5 -61.5t-118.5 -22.5q-34 0 -66.5 2t-60.5 7v139zM137 1312v172h180v-172h-180z" />
<glyph unicode="k" horiz-adv-x="1024" d="M138 0v1484h180v-927l475 525h211l-439 -465l462 -617h-211l-366 494l-132 -109v-385h-180z" />
<glyph unicode="l" horiz-adv-x="455" d="M138 0v1484h180v-1484h-180z" />
<glyph unicode="m" horiz-adv-x="1706" d="M136 1082h170q1 -5 2 -27t2.5 -50.5t3 -58t0.5 -49.5h3q24 47 52 85t65.5 64.5t86 41t112.5 14.5q123 0 194.5 -49t99.5 -156h3q24 47 54 85t70 64.5t90 41t114 14.5q82 0 141.5 -22t97.5 -68t56 -118.5t18 -172.5v-721h-178v686q0 79 -10 132t-33.5 85.5t-61.5 46 t-93 13.5q-57 0 -103 -21.5t-78.5 -63.5t-50 -105t-17.5 -146v-627h-178v686q0 79 -10 132t-33.5 85.5t-61.5 46t-93 13.5q-57 0 -103 -22.5t-78.5 -65t-50 -105t-17.5 -143.5v-627h-179v851q0 34 -0.5 71.5t-1.5 71t-2 57.5t-2 31z" />
<glyph unicode="n" d="M136 1082h170q1 -5 2 -27t2.5 -50.5t3 -58t0.5 -49.5h3q26 47 57 85t72 64.5t94 41t123 14.5q90 0 155 -22t107 -68t61.5 -118.5t19.5 -172.5v-721h-181v686q0 79 -11.5 132t-37.5 85.5t-68.5 46t-105.5 13.5q-64 0 -115.5 -22.5t-88 -65t-56.5 -105t-20 -143.5v-627 h-180v851q0 34 -0.5 71.5t-1.5 71t-2 57.5t-2 31z" />
<glyph unicode="o" d="M86 542q0 560 485 560q126 0 217.5 -35t150 -105t86.5 -175t28 -245q0 -284 -125 -423t-363 -139q-113 0 -202 34t-150.5 104t-94 175.5t-32.5 248.5zM275 542q0 -126 22 -208.5t60.5 -131.5t91 -69t114.5 -20q69 0 125 19.5t95 68.5t60 132t21 209t-19.5 208t-57 131 t-91.5 68.5t-122 19.5q-69 0 -124.5 -20.5t-94.5 -70t-59.5 -131.5t-20.5 -205z" />
<glyph unicode="p" d="M132 1082h174q1 -3 2.5 -21t3 -43.5t3 -54.5t1.5 -55h4q25 52 57 88.5t73 60t91.5 34t113.5 10.5q112 0 188.5 -40t123 -112.5t66.5 -175t20 -227.5q0 -123 -20 -227t-66.5 -179t-123 -117.5t-188.5 -42.5q-116 0 -203 44t-133 144h-5q1 -2 1.5 -18t1 -40t1 -53.5 t0.5 -58.5v-423h-180v1286q0 39 -0.5 75t-1.5 65.5t-2 50.5t-2 30zM318 528q0 -115 19 -194.5t55.5 -128.5t90.5 -70.5t124 -21.5q75 0 124.5 29t79 84t41.5 134.5t12 181.5q0 100 -12 178t-41.5 132t-78.5 82t-123 28q-60 0 -113 -17t-92.5 -65t-62.5 -132.5t-23 -219.5z " />
<glyph unicode="q" d="M86 536q0 282 98.5 424t299.5 142q67 0 118.5 -12t92 -35.5t71 -58.5t55.5 -82h2q0 25 1.5 55.5t3 57.5t3.5 46.5t4 22.5h173q-2 -17 -4.5 -89t-2.5 -206v-1226h-180v439q0 26 0.5 54t1.5 53q1 28 2 57h-2q-26 -51 -57.5 -88.5t-72.5 -62t-92.5 -36t-116.5 -11.5 q-206 0 -302 139t-96 417zM275 542q0 -108 13.5 -188t44 -132t79 -77.5t118.5 -25.5q60 0 113 18.5t92.5 67t62.5 133t23 216.5q0 118 -20.5 198t-58 128t-91 68.5t-119.5 20.5q-69 0 -118 -25.5t-79.5 -78t-45 -133t-14.5 -190.5z" />
<glyph unicode="r" horiz-adv-x="682" d="M136 1082h170q1 -23 2.5 -52.5t3 -60.5t2 -59.5t0.5 -48.5h4q19 62 40.5 107.5t50.5 75t69 44t97 14.5q22 0 42 -3.5t31 -6.5v-165q-18 5 -42 7.5t-54 2.5q-62 0 -105.5 -28t-71 -77.5t-40.5 -118t-13 -149.5v-564h-180v830q0 34 -0.5 69.5t-1.5 68.5t-2 62t-2 52z" />
<glyph unicode="s" horiz-adv-x="1024" d="M57 254l159 31q23 -87 95 -127.5t200 -40.5q58 0 106.5 8t83.5 27.5t54.5 52t19.5 80.5q0 49 -23 80.5t-64 52.5t-99.5 36.5t-128.5 34.5q-65 17 -129 38t-115.5 55.5t-83.5 85.5t-32 128q0 148 105.5 225.5t307.5 77.5q179 0 284.5 -63t133.5 -202l-162 -20 q-9 42 -33 70.5t-58 46t-76.5 25t-88.5 7.5q-122 0 -180 -37t-58 -112q0 -44 21.5 -72.5t60 -48t92.5 -34t119 -30.5q43 -11 88 -23.5t87.5 -30t80 -41t65.5 -56.5t44.5 -77t16.5 -102q0 -76 -29.5 -135.5t-85.5 -100t-137.5 -62t-186.5 -21.5q-94 0 -169.5 14.5 t-132.5 46.5t-95.5 84.5t-56.5 128.5z" />
<glyph unicode="t" horiz-adv-x="569" d="M31 951v131h132l53 242h120v-242h200v-131h-200v-683q0 -78 25.5 -109.5t88.5 -31.5q26 0 50.5 4t53.5 10v-133q-41 -11 -83.5 -17.5t-98.5 -6.5q-216 0 -216 245v722h-125z" />
<glyph unicode="u" d="M133 361v721h181v-686q0 -79 11.5 -132t37.5 -85.5t68.5 -46t105.5 -13.5q64 0 115.5 22.5t88 65t56.5 105t20 143.5v627h180v-851q0 -34 0.5 -71.5t1.5 -71t2 -57.5t2 -31h-170q-1 5 -2 27t-2.5 50.5t-2.5 58t-1 49.5h-3q-26 -47 -57 -85t-72 -64.5t-94 -41t-123 -14.5 q-90 0 -155 22t-107 68t-61.5 118t-19.5 173z" />
<glyph unicode="v" horiz-adv-x="1024" d="M7 1082h192l238 -704q7 -22 16.5 -53.5t19.5 -65.5t18.5 -65.5t14.5 -52.5q6 21 15.5 52.5t19.5 64.5t20.5 64.5t18.5 53.5l246 706h191l-404 -1082h-213z" />
<glyph unicode="w" horiz-adv-x="1479" d="M-3 1082h178l183 -735q7 -23 14 -56.5t14 -65.5q7 -37 15 -76q8 38 17 74q8 31 16 63t14 53l196 743h193l189 -743q7 -26 15 -59t15 -62q8 -34 16 -69q8 38 16 74q7 31 14.5 64.5t14.5 59.5l191 735h176l-310 -1082h-209l-173 698q-8 27 -16.5 67t-16.5 78q-10 44 -19 91 q-9 -45 -19 -89q-8 -38 -17.5 -79t-17.5 -72l-178 -694h-208z" />
<glyph unicode="x" horiz-adv-x="1024" d="M23 0l385 556l-367 526h199l270 -421l268 421h201l-367 -524l390 -558h-201l-291 444l-293 -444h-194z" />
<glyph unicode="y" horiz-adv-x="1024" d="M5 1082h192l228 -598q10 -27 25.5 -72l31 -90t27.5 -81t14 -45q3 11 14.5 43.5t26 72.5t29.5 81t25 71l212 618h190l-416 -1082q-38 -98 -77.5 -176.5t-88.5 -134t-109 -85t-138 -29.5q-34 0 -63 2t-61 9v135q19 -3 43 -4.5t41 -1.5q79 0 147 59t119 188l17 43z" />
<glyph unicode="z" horiz-adv-x="1024" d="M49 0v137l661 806h-621v139h824v-137l-662 -806h699v-139h-901z" />
<glyph unicode="{" horiz-adv-x="684" d="M34 466v127q51 2 91 16t67.5 42t42 72t14.5 106v362q0 141 66.5 217t197.5 76h135v-129h-63q-91 0 -129.5 -53.5t-38.5 -161.5v-356q0 -50 -15 -92t-41 -74t-61.5 -54t-76.5 -32v-2q43 -10 78.5 -32t61 -54.5t40 -74.5t14.5 -93v-357q0 -106 38.5 -160.5t129.5 -54.5h63 v-129h-135q-65 0 -114.5 20.5t-82.5 58.5t-50 92t-17 122v361q0 63 -14.5 107t-42 72t-67.5 42t-91 16z" />
<glyph unicode="|" horiz-adv-x="532" d="M183 -434v1918h166v-1918h-166z" />
<glyph unicode="}" horiz-adv-x="684" d="M34 -296h60q91 0 130.5 54.5t39.5 160.5v357q0 51 14 93t39.5 74.5t61 54.5t78.5 32v2q-42 10 -77 32t-61 54t-40.5 74t-14.5 92v356q0 108 -39.5 161.5t-130.5 53.5h-60v129h132q131 0 197.5 -76t66.5 -217v-362q0 -62 14.5 -106t42 -72t68 -42t92.5 -16v-127 q-52 -2 -92.5 -16t-68 -42t-42 -72t-14.5 -107v-361q0 -68 -17 -122t-50 -92t-82.5 -58.5t-114.5 -20.5h-132v129z" />
<glyph unicode="~" horiz-adv-x="1196" d="M92 580v143q50 38 116 61t147 23q40 0 80 -6.5t78.5 -16.5t76 -23t74.5 -26q21 -8 46 -15.5t50.5 -14.5t51 -11t48.5 -4q69 0 130.5 25t113.5 67v-149q-32 -23 -61.5 -38t-60 -24.5t-64.5 -13.5t-74 -4q-69 0 -141.5 22t-145.5 48q-129 45 -217 45q-38 0 -70.5 -6 t-62.5 -17.5t-58 -27.5t-57 -37z" />
<glyph unicode="&#xa1;" horiz-adv-x="682" d="M242 -327l24 1012h148l24 -1012h-196zM246 881v201h194v-201h-194z" />
<glyph unicode="&#xa2;" d="M135 697q0 150 33 253t88.5 168.5t128.5 97t153 38.5v155h124v-155q78 -8 138 -35.5t103 -70t70 -97t39 -117.5l-185 -14q-14 90 -71 143t-162 53q-77 0 -128.5 -25.5t-83.5 -77t-45.5 -129.5t-13.5 -183q0 -93 13.5 -171t45.5 -134.5t84.5 -87.5t129.5 -31 q96 0 160.5 52t79.5 160l182 -12q-8 -62 -33.5 -120t-69.5 -104t-107 -77t-146 -39v-168h-124v168q-111 10 -188 56.5t-124.5 121t-69 172t-21.5 210.5z" />
<glyph unicode="&#xa3;" d="M58 625v129h186v280q0 92 24 165.5t73.5 124.5t125.5 78.5t179 27.5q70 0 131.5 -14.5t111 -43.5t85 -72t53.5 -100l-174 -57q-10 31 -29.5 57t-46 44t-59 28t-68.5 10q-114 0 -170 -57.5t-56 -182.5v-288h408v-129h-408v-126q0 -56 -11 -109t-33 -99t-53.5 -81.5 t-71.5 -56.5h483q38 0 71.5 9.5t60 30.5t45 54.5t26.5 81.5l163 -18q-9 -80 -37.5 -138.5t-73 -97t-102 -57t-124.5 -18.5h-698v154q89 46 132 126t43 201v144h-186z" />
<glyph unicode="&#xa4;" d="M113 330l102 102q-37 54 -57.5 117.5t-20.5 134.5t20.5 134.5t57.5 117.5l-100 100l104 103l99 -101q54 39 117.5 60.5t136.5 21.5q71 0 134 -21t117 -59l97 97l104 -105l-96 -96q37 -54 58.5 -117.5t21.5 -134.5t-22 -135t-60 -117l100 -100l-102 -105l-101 101 q-54 -37 -117 -57.5t-134 -20.5q-72 0 -136 21t-116 59l-105 -105zM291 686q0 -58 22 -109t60.5 -89t89.5 -60t109 -22q57 0 108 22t89.5 60t60.5 89t22 109t-22 109t-60.5 89t-89.5 60.5t-108 22.5q-58 0 -109 -22.5t-89.5 -60.5t-60.5 -89t-22 -109z" />
<glyph unicode="&#xa5;" d="M-2 1409h199l371 -647l375 647h199l-422 -700h321v-125h-383v-154h383v-127h-383v-303h-178v303h-381v127h381l2 154h-383v125h320z" />
<glyph unicode="&#xa6;" horiz-adv-x="532" d="M183 345h166v-779h-166v779zM183 706v778h166v-778h-166z" />
<glyph unicode="&#xa7;" d="M115 100l161 31q12 -55 39 -88.5t66 -52t89 -25t107 -6.5q58 0 109 9t89 29t60.5 52.5t22.5 79.5q0 54 -28.5 90t-76 61.5t-109 43.5t-126.5 34q-65 15 -130.5 38t-117.5 59.5t-84.5 89t-32.5 126.5q0 45 16 86.5t45.5 77t71.5 62t95 41.5q-42 14 -79.5 37t-66 55t-45 72 t-16.5 88q0 139 105.5 216.5t308.5 77.5q79 0 148 -15t123 -46.5t90.5 -80.5t51.5 -118l-161 -20q-8 45 -31 74t-57 46t-76 23.5t-88 6.5q-125 0 -189.5 -39.5t-64.5 -110.5q0 -45 25 -77t66.5 -55t96 -39t113.5 -30q68 -16 137.5 -39t125.5 -59.5t91 -89.5t35 -129 q0 -45 -14 -88.5t-41.5 -80t-68.5 -64t-95 -40.5q49 -21 88.5 -46.5t67 -57.5t42.5 -72.5t15 -91.5q0 -73 -29 -131.5t-85 -100t-138 -63.5t-189 -22q-93 0 -170 13.5t-135.5 45.5t-98 84t-58.5 129zM313 684q0 -46 24.5 -79t65.5 -57t95 -41t114 -32q54 1 100.5 13 t80.5 35.5t53.5 58.5t19.5 81q0 48 -26.5 82.5t-70.5 60t-100.5 43t-117.5 31.5q-58 -3 -102.5 -19.5t-74.5 -42.5t-45.5 -60.5t-15.5 -73.5z" />
<glyph unicode="&#xa8;" horiz-adv-x="682" d="M45 1219v184h165v-184h-165zM439 1219v184h163v-184h-163z" />
<glyph unicode="&#xa9;" horiz-adv-x="1509" d="M31 707q0 100 26 192t73 172.5t113 146.5t146.5 113t172.5 73t192 26q150 0 281.5 -57t230 -155t155 -229.5t56.5 -281.5q0 -100 -26 -192.5t-73 -173t-112.5 -146t-146 -112.5t-173 -73t-192.5 -26q-99 0 -191.5 26t-172.5 73t-146.5 112.5t-113.5 146t-73 173 t-26 192.5zM126 707q0 -131 49.5 -245.5t135 -200t199.5 -134.5t244 -49q87 0 167.5 22.5t150.5 63t128 98t99 127.5t63.5 150.5t22.5 167.5q0 86 -22.5 166.5t-63.5 150t-99 127t-128 98.5t-150.5 63.5t-167.5 22.5q-130 0 -244 -49.5t-199.5 -135t-135 -199.5t-49.5 -244z M369 709q0 97 24 175.5t72.5 134t121.5 85t171 29.5q75 0 131 -18t96 -47.5t67.5 -67t45.5 -76.5l-114 -33q-12 26 -31 51t-46.5 44t-63.5 30.5t-83 11.5q-69 0 -118.5 -23t-81.5 -64.5t-47 -100.5t-15 -131t16.5 -132t50 -103t83.5 -67t117 -24q49 0 86.5 13.5t65.5 36 t47.5 50t33.5 56.5l115 -35q-22 -43 -51 -83.5t-70 -72t-96.5 -50.5t-130.5 -19q-101 0 -175.5 32t-123.5 89t-73 136t-24 173z" />
<glyph unicode="&#xaa;" horiz-adv-x="758" d="M26 870q0 69 25.5 115t68.5 74t99.5 40t118.5 13l178 4v60q0 46 -10.5 76t-30 47.5t-47.5 24.5t-63 7q-67 0 -107.5 -29.5t-49.5 -105.5l-149 10q7 47 28.5 88t59 72t91.5 48.5t125 17.5q68 0 122.5 -14.5t93 -44.5t59.5 -77.5t21 -113.5v-308q0 -58 14 -83t49 -25 q12 0 23 2.5t20 5.5v-104q-19 -5 -40 -9t-43 -4q-41 0 -69.5 11t-47.5 30.5t-29 45t-12 54.5h-4q-38 -77 -104 -112t-156 -35q-53 0 -96 14.5t-74 42.5t-47.5 69t-16.5 93zM176 883q0 -56 29 -88.5t94 -32.5q48 0 88 17t68.5 44.5t44.5 63t16 72.5v65l-138 -4 q-41 -2 -78 -7.5t-64.5 -20t-43.5 -40.5t-16 -69z" />
<glyph unicode="&#xab;" d="M83 506v63l336 371h167v-31l-335 -372l337 -367v-29h-169zM548 506v63l338 371h168v-31l-338 -372l340 -367v-29h-170z" />
<glyph unicode="&#xac;" horiz-adv-x="1196" d="M100 608v146h995v-574h-145v428h-850z" />
<glyph unicode="&#xad;" horiz-adv-x="682" d="M91 464v160h500v-160h-500z" />
<glyph unicode="&#xae;" horiz-adv-x="1509" d="M31 707q0 100 26 192t73 172.5t113 146.5t146.5 113t172.5 73t192 26q150 0 281.5 -57t230 -155t155 -229.5t56.5 -281.5q0 -100 -26 -192.5t-73 -173t-112.5 -146t-146 -112.5t-173 -73t-192.5 -26q-99 0 -191.5 26t-172.5 73t-146.5 112.5t-113.5 146t-73 173 t-26 192.5zM126 707q0 -131 49.5 -245.5t135 -200t199.5 -134.5t244 -49q87 0 167.5 22.5t150.5 63t128 98t99 127.5t63.5 150.5t22.5 167.5q0 86 -22.5 166.5t-63.5 150t-99 127t-128 98.5t-150.5 63.5t-167.5 22.5q-130 0 -244 -49.5t-199.5 -135t-135 -199.5t-49.5 -244z M468 289v831h307q142 0 217.5 -63t75.5 -174q0 -102 -52 -163.5t-137 -80.5l221 -350h-145l-199 336h-161v-336h-127zM595 721h182q80 0 122 42.5t42 117.5q0 69 -47.5 105t-128.5 36h-170v-301z" />
<glyph unicode="&#xaf;" horiz-adv-x="1131" d="M-17 1452v94h1165v-94h-1165z" />
<glyph unicode="&#xb0;" horiz-adv-x="819" d="M122 1145q0 60 23 112t62 90.5t91 60.5t111 22t111.5 -22t91.5 -60.5t61.5 -90.5t22.5 -112q0 -59 -22.5 -111t-61.5 -90.5t-91.5 -61t-111.5 -22.5t-111 22.5t-91 61t-62 90.5t-23 111zM231 1145q0 -37 14 -69.5t38 -57t56.5 -39t69.5 -14.5q38 0 70.5 14.5t56.5 39 t37.5 57t13.5 69.5t-13.5 70t-37.5 57.5t-56.5 38.5t-70.5 14q-37 0 -69.5 -14t-56.5 -38.5t-38 -57.5t-14 -70z" />
<glyph unicode="&#xb1;" horiz-adv-x="1124" d="M65 0v145h995v-145h-995zM65 680v145h424v394h147v-394h424v-145h-424v-395h-147v395h-424z" />
<glyph unicode="&#xb2;" horiz-adv-x="682" d="M41 666q27 61 71 109t94 88.5t101.5 76.5t92.5 72.5t67 76.5t26 89q0 62 -35.5 99.5t-109.5 37.5q-68 0 -112 -36.5t-52 -104.5l-133 8q6 51 29 94.5t61 75.5t91.5 50.5t121.5 18.5q65 0 116.5 -16.5t87 -46.5t54 -73t18.5 -97q0 -62 -27 -112t-68.5 -93t-92.5 -80.5 t-98.5 -74t-86.5 -73.5t-57 -79h443v-113h-600z" />
<glyph unicode="&#xb3;" horiz-adv-x="682" d="M27 778l136 13q9 -67 53 -101.5t129 -34.5q77 0 118.5 36t41.5 112q0 45 -18.5 72t-46.5 41.5t-61.5 19t-62.5 4.5h-61v109h57q29 0 59.5 6.5t55.5 22t41 42t16 66.5q0 60 -37 94.5t-108 34.5q-68 0 -110 -35t-48 -100l-135 12q7 58 32 101t64.5 71.5t90.5 42.5t110 14 q69 0 121 -16.5t87 -46t52.5 -69t17.5 -85.5q0 -75 -43 -130t-133 -75v-2q52 -5 89.5 -23.5t61.5 -45.5t35 -61.5t11 -71.5q0 -116 -77.5 -180t-219.5 -64q-87 0 -145 19.5t-94.5 51.5t-54.5 72.5t-24 83.5z" />
<glyph unicode="&#xb4;" horiz-adv-x="682" d="M72 1201v20l217 287h207v-29l-330 -278h-94z" />
<glyph unicode="&#xb5;" horiz-adv-x="1180" d="M140 -425v1507h181v-686q0 -78 16 -131t45 -85.5t71 -46.5t94 -14q128 0 201 87t73 249v627h180v-816q0 -44 5.5 -72t15.5 -44t24.5 -22.5t32.5 -6.5q11 0 27 2.5t27 5.5v-129q-26 -8 -51.5 -14t-61.5 -6q-54 0 -89.5 15t-57.5 41t-32 61.5t-12 76.5h-3 q-52 -95 -125.5 -144.5t-173.5 -49.5q-67 0 -121.5 20.5t-85.5 58.5v-484h-180z" />
<glyph unicode="&#xb6;" horiz-adv-x="1100" d="M80 1049q0 84 25 150.5t72.5 113t116.5 71.5t156 25h563v-102h-129v-1571h-112v1571h-217v-1571h-113v958q-80 0 -146.5 22.5t-114.5 66.5t-74.5 110.5t-26.5 155.5z" />
<glyph unicode="&#xb7;" horiz-adv-x="569" d="M187 446v220h195v-220h-195z" />
<glyph unicode="&#xb8;" horiz-adv-x="682" d="M119 -332q49 -6 86 -6q41 0 69 6t45.5 16.5t25 25.5t7.5 33q0 37 -30.5 57t-102.5 20h-28.5t-28.5 -2l65 182h107l-39 -100q94 -3 141 -43.5t47 -109.5q0 -41 -15 -74.5t-47.5 -57.5t-84.5 -36.5t-127 -12.5q-20 0 -42.5 0.5t-47.5 3.5v98z" />
<glyph unicode="&#xb9;" horiz-adv-x="682" d="M80 563v107h211v620l-202 -138v120l210 137h123v-739h215v-107h-557z" />
<glyph unicode="&#xba;" horiz-adv-x="748" d="M27 1042q0 91 21.5 163.5t65 123t109 77t153.5 26.5q93 0 158.5 -26.5t107.5 -76.5t61.5 -122.5t19.5 -164.5q0 -188 -88 -289.5t-263 -101.5q-168 0 -256.5 100.5t-88.5 290.5zM179 1042q0 -84 14 -139t39.5 -88t60.5 -46t78 -13q49 0 86.5 13t63.5 46t39.5 88t13.5 139 q0 83 -12.5 138t-37.5 87.5t-61 46t-84 13.5t-85.5 -13.5t-63 -46.5t-38.5 -88t-13 -137z" />
<glyph unicode="&#xbb;" d="M83 141v29l338 367l-336 372v31h168l335 -371v-63l-335 -365h-170zM550 141v29l338 367l-336 372v31h166l338 -371v-63l-338 -365h-168z" />
<glyph unicode="&#xbc;" horiz-adv-x="1708" d="M56 563v107h211v620l-202 -138v120l210 137h123v-739h215v-107h-557zM345 0l881 1409h145l-878 -1409h-148zM966 180v111l386 557h151v-555h111v-113h-111v-178h-131v178h-406zM1093 293h279v289v33v38t0.5 36t1.5 26q-7 -13 -18 -31.5t-23 -38t-23 -37t-18 -28.5z" />
<glyph unicode="&#xbd;" horiz-adv-x="1708" d="M56 563v107h211v620l-202 -138v120l210 137h123v-739h215v-107h-557zM345 0l881 1409h145l-878 -1409h-148zM1051 105q27 61 71 109t94 88.5t101.5 76.5t92.5 72.5t67 76.5t26 89q0 62 -35.5 99.5t-109.5 37.5q-68 0 -112 -36.5t-52 -104.5l-133 8q6 51 29 94.5t61 75.5 t91.5 50.5t121.5 18.5q65 0 116.5 -16.5t87 -46.5t54 -73t18.5 -97q0 -62 -27 -112t-68.5 -93t-92.5 -80.5t-98.5 -74t-86.5 -73.5t-57 -79h443v-113h-600z" />
<glyph unicode="&#xbe;" horiz-adv-x="1708" d="M73 778l136 13q9 -67 53 -101.5t129 -34.5q77 0 118.5 36t41.5 112q0 45 -18.5 72t-46.5 41.5t-61.5 19t-62.5 4.5h-61v109h57q29 0 59.5 6.5t55.5 22t41 42t16 66.5q0 60 -37 94.5t-108 34.5q-68 0 -110 -35t-48 -100l-135 12q7 58 32 101t64.5 71.5t90.5 42.5t110 14 q69 0 121 -16.5t87 -46t52.5 -69t17.5 -85.5q0 -75 -43 -130t-133 -75v-2q52 -5 89.5 -23.5t61.5 -45.5t35 -61.5t11 -71.5q0 -116 -77.5 -180t-219.5 -64q-87 0 -145 19.5t-94.5 51.5t-54.5 72.5t-24 83.5zM365 0l881 1409h145l-878 -1409h-148zM966 180v111l386 557h151 v-555h111v-113h-111v-178h-131v178h-406zM1093 293h279v289v33v38t0.5 36t1.5 26q-7 -13 -18 -31.5t-23 -38t-23 -37t-18 -28.5z" />
<glyph unicode="&#xbf;" horiz-adv-x="1251" d="M131 50q0 71 18.5 125t49.5 96.5t70.5 76t80.5 63.5t80.5 59t71 63t51 75.5t20.5 96.5h175q-2 -69 -21.5 -121t-50.5 -92t-70 -71.5t-79 -60t-78.5 -57t-68.5 -63.5t-48.5 -79t-18.5 -103t21 -105t59.5 -77.5t93 -47.5t121.5 -16q140 0 222 70t96 192l184 -12 q-11 -84 -44.5 -158.5t-94 -130.5t-150 -88.5t-211.5 -32.5q-114 0 -203 28t-150.5 79.5t-93.5 125t-32 165.5zM561 881v201h195v-201h-195z" />
<glyph unicode="&#xc0;" horiz-adv-x="1366" d="M4 0l575 1409h217l566 -1409h-195l-161 412h-642l-162 -412h-198zM422 561h527l-181 465q-16 40 -30.5 81t-25.5 74.5t-18.5 56t-8.5 27.5q-2 -5 -9 -28t-18.5 -57t-26 -75t-29.5 -81zM440 1747v29h207l217 -226v-20h-114z" />
<glyph unicode="&#xc1;" horiz-adv-x="1366" d="M4 0l575 1409h217l566 -1409h-195l-161 412h-642l-162 -412h-198zM422 561h527l-181 465q-16 40 -30.5 81t-25.5 74.5t-18.5 56t-8.5 27.5q-2 -5 -9 -28t-18.5 -57t-26 -75t-29.5 -81zM547 1530v20l217 226h207v-29l-310 -217h-114z" />
<glyph unicode="&#xc2;" horiz-adv-x="1366" d="M4 0l575 1409h217l566 -1409h-195l-161 412h-642l-162 -412h-198zM352 1530v20l234 240h204l224 -240v-20h-105l-219 139h-2l-232 -139h-104zM422 561h527l-181 465q-16 40 -30.5 81t-25.5 74.5t-18.5 56t-8.5 27.5q-2 -5 -9 -28t-18.5 -57t-26 -75t-29.5 -81z" />
<glyph unicode="&#xc3;" horiz-adv-x="1366" d="M4 0l575 1409h217l566 -1409h-195l-161 412h-642l-162 -412h-198zM327 1530q5 45 15 92.5t32.5 86.5t59.5 64t96 25q44 0 86 -18.5t81 -41t73.5 -41t64.5 -18.5q54 0 81.5 31.5t35.5 87.5h92q-5 -44 -15 -91.5t-31.5 -86.5t-58.5 -64.5t-97 -25.5q-42 0 -84 18.5t-81 41 t-74.5 41t-66.5 18.5q-55 0 -82 -31t-36 -88h-91zM422 561h527l-181 465q-16 40 -30.5 81t-25.5 74.5t-18.5 56t-8.5 27.5q-2 -5 -9 -28t-18.5 -57t-26 -75t-29.5 -81z" />
<glyph unicode="&#xc4;" horiz-adv-x="1366" d="M4 0l575 1409h217l566 -1409h-195l-161 412h-642l-162 -412h-198zM409 1530v184h165v-184h-165zM422 561h527l-181 465q-16 40 -30.5 81t-25.5 74.5t-18.5 56t-8.5 27.5q-2 -5 -9 -28t-18.5 -57t-26 -75t-29.5 -81zM803 1530v184h163v-184h-163z" />
<glyph unicode="&#xc5;" horiz-adv-x="1366" d="M4 0l575 1409h217l566 -1409h-195l-161 412h-642l-162 -412h-198zM422 561h527l-181 465q-16 40 -30.5 81t-25.5 74.5t-18.5 56t-8.5 27.5q-2 -5 -9 -28t-18.5 -57t-26 -75t-29.5 -81zM444 1546q0 50 19 94t52 76.5t77 51.5t94 19t94 -19t77 -51.5t52 -76.5t19 -94 t-19 -94t-52 -77t-77 -52t-94 -19t-94 19t-77 52t-52 77t-19 94zM551 1546q0 -29 10.5 -53.5t28.5 -43.5t42.5 -29.5t53.5 -10.5q28 0 52.5 10.5t42.5 29.5t28.5 43.5t10.5 53.5q0 28 -10.5 52.5t-28.5 42.5t-42.5 28.5t-52.5 10.5q-29 0 -53.5 -10.5t-42.5 -28.5 t-28.5 -42.5t-10.5 -52.5z" />
<glyph unicode="&#xc6;" horiz-adv-x="2048" d="M24 0l686 1409h1209v-156h-759v-452h699v-154h-699v-491h800v-156h-991v412h-548l-198 -412h-199zM491 561h478v701h-151q-1 -3 -9 -20.5t-19 -42.5t-24.5 -54t-25.5 -54.5t-21 -44.5t-11 -24z" />
<glyph unicode="&#xc7;" horiz-adv-x="1479" d="M104 711q0 165 45.5 298t133 226.5t215.5 144t292 50.5q225 0 376 -88t222 -261l-181 -60q-20 50 -54 95.5t-85 80.5t-119.5 56t-156.5 21q-120 0 -212.5 -40t-155 -114t-94.5 -178t-32 -231t34.5 -232.5t99 -181.5t158 -118t210.5 -42q82 0 149.5 21.5t122 60.5 t97.5 92.5t76 118.5l156 -78q-38 -79 -94 -147t-131.5 -118t-171 -78.5t-213.5 -28.5q-171 0 -299.5 54.5t-215 152t-129.5 231.5t-43 293zM629 -332q49 -6 86 -6q41 0 69 6t45.5 16.5t25 25.5t7.5 33q0 37 -30.5 57t-102.5 20h-28.5t-28.5 -2l65 182h107l-39 -100 q94 -3 141 -43.5t47 -109.5q0 -41 -15 -74.5t-47.5 -57.5t-84.5 -36.5t-127 -12.5q-20 0 -42.5 0.5t-47.5 3.5v98z" />
<glyph unicode="&#xc8;" horiz-adv-x="1366" d="M168 0v1409h1069v-156h-878v-452h818v-154h-818v-491h919v-156h-1110zM425 1747v29h207l217 -226v-20h-114z" />
<glyph unicode="&#xc9;" horiz-adv-x="1366" d="M168 0v1409h1069v-156h-878v-452h818v-154h-818v-491h919v-156h-1110zM551 1530v20l217 226h207v-29l-310 -217h-114z" />
<glyph unicode="&#xca;" horiz-adv-x="1366" d="M168 0v1409h1069v-156h-878v-452h818v-154h-818v-491h919v-156h-1110zM375 1530v20l234 240h204l224 -240v-20h-105l-219 139h-2l-232 -139h-104z" />
<glyph unicode="&#xcb;" horiz-adv-x="1366" d="M168 0v1409h1069v-156h-878v-452h818v-154h-818v-491h919v-156h-1110zM422 1530v184h165v-184h-165zM816 1530v184h163v-184h-163z" />
<glyph unicode="&#xcc;" horiz-adv-x="569" d="M9 1747v29h207l217 -226v-20h-114zM189 0v1409h191v-1409h-191z" />
<glyph unicode="&#xcd;" horiz-adv-x="569" d="M142 1530v20l217 226h207v-29l-310 -217h-114zM189 0v1409h191v-1409h-191z" />
<glyph unicode="&#xce;" horiz-adv-x="569" d="M-46 1530v20l234 240h204l224 -240v-20h-105l-219 139h-2l-232 -139h-104zM189 0v1409h191v-1409h-191z" />
<glyph unicode="&#xcf;" horiz-adv-x="569" d="M7 1530v184h165v-184h-165zM189 0v1409h191v-1409h-191zM401 1530v184h163v-184h-163z" />
<glyph unicode="&#xd0;" horiz-adv-x="1479" d="M14 647v154h154v608h466q163 0 300.5 -40.5t236.5 -125t154.5 -214.5t55.5 -310q0 -176 -53 -310.5t-145 -225t-217.5 -137t-270.5 -46.5h-527v647h-154zM359 153h314q111 0 205.5 36t163.5 107t108 177t39 246q0 143 -41 244.5t-115 166.5t-177 95.5t-226 30.5h-271 v-455h406v-154h-406v-494z" />
<glyph unicode="&#xd1;" horiz-adv-x="1479" d="M168 0v1409h222l762 -1208l-6 98q-2 42 -4 91.5t-2 94.5v924h172v-1409h-230l-754 1200q2 -49 5 -97q2 -41 3.5 -86.5t1.5 -80.5v-936h-170zM394 1530q5 45 15 92.5t32.5 86.5t59.5 64t96 25q44 0 86 -18.5t81 -41t73.5 -41t64.5 -18.5q54 0 81.5 31.5t35.5 87.5h92 q-5 -44 -15 -91.5t-31.5 -86.5t-58.5 -64.5t-97 -25.5q-42 0 -84 18.5t-81 41t-74.5 41t-66.5 18.5q-55 0 -82 -31t-36 -88h-91z" />
<glyph unicode="&#xd2;" horiz-adv-x="1593" d="M97 711q0 165 46 298t135 226.5t219.5 144t299.5 50.5q168 0 298.5 -51t219 -145t134.5 -227t46 -296q0 -165 -47.5 -300t-137.5 -231t-220 -148t-295 -52q-174 0 -305 54.5t-218 152t-131 231.5t-44 293zM291 711q0 -127 32.5 -232.5t96 -182t158 -119t217.5 -42.5 q132 0 227.5 43t157 119.5t91 182.5t29.5 231q0 127 -32.5 231t-96 178t-157.5 114t-217 40q-126 0 -221 -40t-158.5 -114t-95 -178t-31.5 -231zM544 1747v29h207l217 -226v-20h-114z" />
<glyph unicode="&#xd3;" horiz-adv-x="1593" d="M97 711q0 165 46 298t135 226.5t219.5 144t299.5 50.5q168 0 298.5 -51t219 -145t134.5 -227t46 -296q0 -165 -47.5 -300t-137.5 -231t-220 -148t-295 -52q-174 0 -305 54.5t-218 152t-131 231.5t-44 293zM291 711q0 -127 32.5 -232.5t96 -182t158 -119t217.5 -42.5 q132 0 227.5 43t157 119.5t91 182.5t29.5 231q0 127 -32.5 231t-96 178t-157.5 114t-217 40q-126 0 -221 -40t-158.5 -114t-95 -178t-31.5 -231zM621 1530v20l217 226h207v-29l-310 -217h-114z" />
<glyph unicode="&#xd4;" horiz-adv-x="1593" d="M97 711q0 165 46 298t135 226.5t219.5 144t299.5 50.5q168 0 298.5 -51t219 -145t134.5 -227t46 -296q0 -165 -47.5 -300t-137.5 -231t-220 -148t-295 -52q-174 0 -305 54.5t-218 152t-131 231.5t-44 293zM291 711q0 -127 32.5 -232.5t96 -182t158 -119t217.5 -42.5 q132 0 227.5 43t157 119.5t91 182.5t29.5 231q0 127 -32.5 231t-96 178t-157.5 114t-217 40q-126 0 -221 -40t-158.5 -114t-95 -178t-31.5 -231zM469 1530v20l234 240h204l224 -240v-20h-105l-219 139h-2l-232 -139h-104z" />
<glyph unicode="&#xd5;" horiz-adv-x="1593" d="M97 711q0 165 46 298t135 226.5t219.5 144t299.5 50.5q168 0 298.5 -51t219 -145t134.5 -227t46 -296q0 -165 -47.5 -300t-137.5 -231t-220 -148t-295 -52q-174 0 -305 54.5t-218 152t-131 231.5t-44 293zM291 711q0 -127 32.5 -232.5t96 -182t158 -119t217.5 -42.5 q132 0 227.5 43t157 119.5t91 182.5t29.5 231q0 127 -32.5 231t-96 178t-157.5 114t-217 40q-126 0 -221 -40t-158.5 -114t-95 -178t-31.5 -231zM426 1530q5 45 15 92.5t32.5 86.5t59.5 64t96 25q44 0 86 -18.5t81 -41t73.5 -41t64.5 -18.5q54 0 81.5 31.5t35.5 87.5h92 q-5 -44 -15 -91.5t-31.5 -86.5t-58.5 -64.5t-97 -25.5q-42 0 -84 18.5t-81 41t-74.5 41t-66.5 18.5q-55 0 -82 -31t-36 -88h-91z" />
<glyph unicode="&#xd6;" horiz-adv-x="1593" d="M97 711q0 165 46 298t135 226.5t219.5 144t299.5 50.5q168 0 298.5 -51t219 -145t134.5 -227t46 -296q0 -165 -47.5 -300t-137.5 -231t-220 -148t-295 -52q-174 0 -305 54.5t-218 152t-131 231.5t-44 293zM291 711q0 -127 32.5 -232.5t96 -182t158 -119t217.5 -42.5 q132 0 227.5 43t157 119.5t91 182.5t29.5 231q0 127 -32.5 231t-96 178t-157.5 114t-217 40q-126 0 -221 -40t-158.5 -114t-95 -178t-31.5 -231zM516 1530v184h165v-184h-165zM910 1530v184h163v-184h-163z" />
<glyph unicode="&#xd7;" horiz-adv-x="1196" d="M142 330l354 354l-352 352l104 103l350 -353l350 351l105 -105l-350 -348l352 -352l-102 -105l-353 353l-356 -355z" />
<glyph unicode="&#xd8;" horiz-adv-x="1593" d="M71 -53l200 241q-88 97 -131 230t-43 293q0 165 46 298t135 226.5t219.5 144t299.5 50.5q125 0 228.5 -28t185.5 -82l121 146h192l-201 -242q85 -94 128.5 -223.5t43.5 -289.5q0 -165 -47.5 -300t-137.5 -231t-220 -148t-295 -52q-127 0 -230 29t-184 83l-120 -145h-190z M291 711q0 -113 25 -208t76 -170l707 853q-59 42 -134.5 65t-167.5 23q-126 0 -221 -40t-158.5 -114t-95 -178t-31.5 -231zM493 226q59 -44 134 -67.5t168 -23.5q132 0 227.5 43t157 119.5t91 182.5t29.5 231q0 112 -24.5 204t-73.5 164z" />
<glyph unicode="&#xd9;" horiz-adv-x="1479" d="M158 512v897h191v-881q0 -107 28.5 -181.5t79.5 -121.5t120.5 -68.5t152.5 -21.5q82 0 155 22t128 70t86.5 125.5t31.5 188.5v868h190v-879q0 -141 -46.5 -244.5t-126.5 -171.5t-187.5 -101t-229.5 -33q-116 0 -220 31t-182.5 96.5t-124.5 166t-46 238.5zM503 1747v29 h207l217 -226v-20h-114z" />
<glyph unicode="&#xda;" horiz-adv-x="1479" d="M158 512v897h191v-881q0 -107 28.5 -181.5t79.5 -121.5t120.5 -68.5t152.5 -21.5q82 0 155 22t128 70t86.5 125.5t31.5 188.5v868h190v-879q0 -141 -46.5 -244.5t-126.5 -171.5t-187.5 -101t-229.5 -33q-116 0 -220 31t-182.5 96.5t-124.5 166t-46 238.5zM565 1530v20 l217 226h207v-29l-310 -217h-114z" />
<glyph unicode="&#xdb;" horiz-adv-x="1479" d="M158 512v897h191v-881q0 -107 28.5 -181.5t79.5 -121.5t120.5 -68.5t152.5 -21.5q82 0 155 22t128 70t86.5 125.5t31.5 188.5v868h190v-879q0 -141 -46.5 -244.5t-126.5 -171.5t-187.5 -101t-229.5 -33q-116 0 -220 31t-182.5 96.5t-124.5 166t-46 238.5zM408 1530v20 l234 240h204l224 -240v-20h-105l-219 139h-2l-232 -139h-104z" />
<glyph unicode="&#xdc;" horiz-adv-x="1479" d="M158 512v897h191v-881q0 -107 28.5 -181.5t79.5 -121.5t120.5 -68.5t152.5 -21.5q82 0 155 22t128 70t86.5 125.5t31.5 188.5v868h190v-879q0 -141 -46.5 -244.5t-126.5 -171.5t-187.5 -101t-229.5 -33q-116 0 -220 31t-182.5 96.5t-124.5 166t-46 238.5zM459 1530v184 h165v-184h-165zM853 1530v184h163v-184h-163z" />
<glyph unicode="&#xdd;" horiz-adv-x="1366" d="M45 1409h210l429 -671l427 671h210l-544 -825v-584h-190v584zM536 1530v20l217 226h207v-29l-310 -217h-114z" />
<glyph unicode="&#xde;" horiz-adv-x="1366" d="M168 0v1409h191v-252h402q125 0 218 -30t155 -85.5t93 -133.5t31 -173q0 -88 -29.5 -167.5t-90 -139.5t-151.5 -95.5t-214 -35.5h-414v-297h-191zM359 438h387q82 0 142.5 22t100 61.5t58.5 93t19 116.5q0 134 -82 208.5t-246 74.5h-379v-576z" />
<glyph unicode="&#xdf;" horiz-adv-x="1251" d="M142 0v1027q0 118 31.5 204.5t91.5 142.5t147 83t197 27q102 0 179.5 -23t130 -63t79 -94.5t26.5 -116.5q0 -61 -16.5 -106t-42 -79.5t-54.5 -61t-54.5 -50t-42 -47.5t-16.5 -52q0 -38 27.5 -67.5t68.5 -58t88.5 -60.5t88.5 -74.5t68.5 -99.5t27.5 -136 q0 -66 -20.5 -123.5t-64 -100t-111.5 -67t-162 -24.5q-80 0 -154 12.5t-129 36.5l-2 164q25 -14 58.5 -26.5t70.5 -22t76 -15t76 -5.5q92 0 141 43t49 122q0 56 -27 94.5t-67.5 69.5t-88 59.5t-88 65t-67.5 85.5t-27 122q0 51 16.5 87.5t41 65.5t53.5 53t53.5 50t41 57.5 t16.5 74.5q0 37 -16.5 68t-48 53.5t-76.5 35.5t-102 13q-68 0 -121.5 -17.5t-90 -56t-56 -99.5t-19.5 -149v-1021h-180z" />
<glyph unicode="&#xe0;" d="M87 302q0 107 40.5 175.5t106 107.5t149.5 54t171 17l243 4v59q0 67 -14 114t-43 76t-72.5 42.5t-102.5 13.5q-52 0 -94 -7.5t-73 -27t-50 -53t-25 -84.5l-188 17q10 64 38 117.5t79.5 92.5t129 60.5t187.5 21.5q204 0 307 -93.5t103 -270.5v-466q0 -80 21 -120.5 t80 -40.5q15 0 30 2t29 5v-112q-34 -8 -67.5 -12t-71.5 -4q-51 0 -87.5 13.5t-59.5 41t-35 68t-15 94.5h-6q-29 -52 -63.5 -94t-80.5 -71.5t-104.5 -45.5t-134.5 -16q-163 0 -245 86t-82 236zM272 299q0 -88 47.5 -136t135.5 -48q86 0 150.5 31.5t107 80.5t63.5 107t21 111 v89l-197 -4q-66 -1 -125.5 -9.5t-104.5 -33.5t-71.5 -70t-26.5 -118zM294 1479v29h207l217 -287v-20h-94z" />
<glyph unicode="&#xe1;" d="M87 302q0 107 40.5 175.5t106 107.5t149.5 54t171 17l243 4v59q0 67 -14 114t-43 76t-72.5 42.5t-102.5 13.5q-52 0 -94 -7.5t-73 -27t-50 -53t-25 -84.5l-188 17q10 64 38 117.5t79.5 92.5t129 60.5t187.5 21.5q204 0 307 -93.5t103 -270.5v-466q0 -80 21 -120.5 t80 -40.5q15 0 30 2t29 5v-112q-34 -8 -67.5 -12t-71.5 -4q-51 0 -87.5 13.5t-59.5 41t-35 68t-15 94.5h-6q-29 -52 -63.5 -94t-80.5 -71.5t-104.5 -45.5t-134.5 -16q-163 0 -245 86t-82 236zM272 299q0 -88 47.5 -136t135.5 -48q86 0 150.5 31.5t107 80.5t63.5 107t21 111 v89l-197 -4q-66 -1 -125.5 -9.5t-104.5 -33.5t-71.5 -70t-26.5 -118zM412 1201v20l217 287h207v-29l-330 -278h-94z" />
<glyph unicode="&#xe2;" d="M87 302q0 107 40.5 175.5t106 107.5t149.5 54t171 17l243 4v59q0 67 -14 114t-43 76t-72.5 42.5t-102.5 13.5q-52 0 -94 -7.5t-73 -27t-50 -53t-25 -84.5l-188 17q10 64 38 117.5t79.5 92.5t129 60.5t187.5 21.5q204 0 307 -93.5t103 -270.5v-466q0 -80 21 -120.5 t80 -40.5q15 0 30 2t29 5v-112q-34 -8 -67.5 -12t-71.5 -4q-51 0 -87.5 13.5t-59.5 41t-35 68t-15 94.5h-6q-29 -52 -63.5 -94t-80.5 -71.5t-104.5 -45.5t-134.5 -16q-163 0 -245 86t-82 236zM218 1201v20l234 270h204l224 -270v-20h-105l-219 169h-2l-232 -169h-104z M272 299q0 -88 47.5 -136t135.5 -48q86 0 150.5 31.5t107 80.5t63.5 107t21 111v89l-197 -4q-66 -1 -125.5 -9.5t-104.5 -33.5t-71.5 -70t-26.5 -118z" />
<glyph unicode="&#xe3;" d="M87 302q0 107 40.5 175.5t106 107.5t149.5 54t171 17l243 4v59q0 67 -14 114t-43 76t-72.5 42.5t-102.5 13.5q-52 0 -94 -7.5t-73 -27t-50 -53t-25 -84.5l-188 17q10 64 38 117.5t79.5 92.5t129 60.5t187.5 21.5q204 0 307 -93.5t103 -270.5v-466q0 -80 21 -120.5 t80 -40.5q15 0 30 2t29 5v-112q-34 -8 -67.5 -12t-71.5 -4q-51 0 -87.5 13.5t-59.5 41t-35 68t-15 94.5h-6q-29 -52 -63.5 -94t-80.5 -71.5t-104.5 -45.5t-134.5 -16q-163 0 -245 86t-82 236zM222 1201q5 45 15 92.5t32.5 86.5t59.5 64t96 25q44 0 86 -18.5t81 -41t73.5 -41 t64.5 -18.5q54 0 81.5 31.5t35.5 87.5h92q-5 -44 -15 -91.5t-31.5 -86.5t-58.5 -64.5t-97 -25.5q-42 0 -84 18.5t-81 41t-74.5 41t-66.5 18.5q-55 0 -82 -31t-36 -88h-91zM272 299q0 -88 47.5 -136t135.5 -48q86 0 150.5 31.5t107 80.5t63.5 107t21 111v89l-197 -4 q-66 -1 -125.5 -9.5t-104.5 -33.5t-71.5 -70t-26.5 -118z" />
<glyph unicode="&#xe4;" d="M87 302q0 107 40.5 175.5t106 107.5t149.5 54t171 17l243 4v59q0 67 -14 114t-43 76t-72.5 42.5t-102.5 13.5q-52 0 -94 -7.5t-73 -27t-50 -53t-25 -84.5l-188 17q10 64 38 117.5t79.5 92.5t129 60.5t187.5 21.5q204 0 307 -93.5t103 -270.5v-466q0 -80 21 -120.5 t80 -40.5q15 0 30 2t29 5v-112q-34 -8 -67.5 -12t-71.5 -4q-51 0 -87.5 13.5t-59.5 41t-35 68t-15 94.5h-6q-29 -52 -63.5 -94t-80.5 -71.5t-104.5 -45.5t-134.5 -16q-163 0 -245 86t-82 236zM272 299q0 -88 47.5 -136t135.5 -48q86 0 150.5 31.5t107 80.5t63.5 107t21 111 v89l-197 -4q-66 -1 -125.5 -9.5t-104.5 -33.5t-71.5 -70t-26.5 -118zM280 1219v184h165v-184h-165zM674 1219v184h163v-184h-163z" />
<glyph unicode="&#xe5;" d="M87 302q0 107 40.5 175.5t106 107.5t149.5 54t171 17l243 4v59q0 67 -14 114t-43 76t-72.5 42.5t-102.5 13.5q-52 0 -94 -7.5t-73 -27t-50 -53t-25 -84.5l-188 17q10 64 38 117.5t79.5 92.5t129 60.5t187.5 21.5q204 0 307 -93.5t103 -270.5v-466q0 -80 21 -120.5 t80 -40.5q15 0 30 2t29 5v-112q-34 -8 -67.5 -12t-71.5 -4q-51 0 -87.5 13.5t-59.5 41t-35 68t-15 94.5h-6q-29 -52 -63.5 -94t-80.5 -71.5t-104.5 -45.5t-134.5 -16q-163 0 -245 86t-82 236zM272 299q0 -88 47.5 -136t135.5 -48q86 0 150.5 31.5t107 80.5t63.5 107t21 111 v89l-197 -4q-66 -1 -125.5 -9.5t-104.5 -33.5t-71.5 -70t-26.5 -118zM315 1410q0 50 19 94t52 76.5t77 51.5t94 19t94 -19t77 -51.5t52 -76.5t19 -94t-19 -94t-52 -77t-77 -52t-94 -19t-94 19t-77 52t-52 77t-19 94zM422 1410q0 -29 10.5 -53.5t28.5 -43.5t42.5 -29.5 t53.5 -10.5q28 0 52.5 10.5t42.5 29.5t28.5 43.5t10.5 53.5q0 28 -10.5 52.5t-28.5 42.5t-42.5 28.5t-52.5 10.5q-29 0 -53.5 -10.5t-42.5 -28.5t-28.5 -42.5t-10.5 -52.5z" />
<glyph unicode="&#xe6;" horiz-adv-x="1821" d="M66 302q0 71 19 125t52.5 93t79 64.5t99 41.5t112 22.5t118.5 7.5l240 4v59q0 67 -13 114t-41.5 76t-72.5 42.5t-105 13.5q-54 0 -98 -7.5t-76 -27t-51.5 -53t-26.5 -84.5l-188 17q10 64 39 117.5t81.5 92.5t132 60.5t191.5 21.5q128 0 214 -35t135 -104 q63 74 151.5 106.5t194.5 32.5q136 0 227.5 -44t147 -121.5t79 -182.5t23.5 -227v-24h-762v-17q1 -82 18 -150t52 -117t89.5 -76.5t132.5 -27.5q117 0 187.5 47t95.5 119l158 -45q-17 -45 -47.5 -90.5t-81.5 -82t-127.5 -60t-184.5 -23.5q-321 0 -423 257q-29 -51 -66 -97.5 t-88 -82t-119.5 -56.5t-161.5 -21q-167 0 -251.5 86t-84.5 236zM251 299q0 -87 50 -135.5t143 -48.5q90 0 154.5 31.5t106 80.5t61.5 107t20 111v89l-195 -4q-40 -1 -80.5 -4t-78.5 -12t-71 -24.5t-57.5 -41t-38.5 -62t-14 -87.5zM970 641h574q-15 171 -87 249.5t-207 78.5 q-45 0 -93 -14.5t-88.5 -51.5t-67.5 -100.5t-31 -161.5z" />
<glyph unicode="&#xe7;" horiz-adv-x="1024" d="M87 542q0 109 18 192.5t50.5 146t76.5 105t95.5 68t108.5 37t115 11.5q91 0 162 -25t122.5 -68.5t83.5 -102.5t45 -127l-185 -14q-14 90 -71 143t-162 53q-77 0 -128.5 -25.5t-83.5 -77t-45.5 -129.5t-13.5 -183q0 -93 13.5 -171t45.5 -134.5t84.5 -87.5t129.5 -31 q96 0 160.5 52t79.5 160l182 -12q-9 -67 -39 -129t-81.5 -109t-125.5 -75.5t-171 -28.5q-127 0 -216 43t-144.5 118.5t-80.5 178t-25 222.5zM387 -332q49 -6 86 -6q41 0 69 6t45.5 16.5t25 25.5t7.5 33q0 37 -30.5 57t-102.5 20h-28.5t-28.5 -2l65 182h107l-39 -100 q94 -3 141 -43.5t47 -109.5q0 -41 -15 -74.5t-47.5 -57.5t-84.5 -36.5t-127 -12.5q-20 0 -42.5 0.5t-47.5 3.5v98z" />
<glyph unicode="&#xe8;" d="M87 548q0 152 38 257.5t104 171.5t154 95.5t188 29.5q136 0 227.5 -44t147 -121.5t79 -182.5t23.5 -227v-24h-772q0 -85 17.5 -156.5t54 -123t93.5 -80t137 -28.5q117 0 187.5 47t95.5 119l158 -45q-17 -45 -47.5 -90.5t-81.5 -82t-127.5 -60t-184.5 -23.5 q-240 0 -365.5 143t-125.5 425zM278 641h584q-15 171 -87 249.5t-207 78.5q-45 0 -94.5 -14.5t-91.5 -51.5t-71 -100.5t-33 -161.5zM327 1479v29h207l217 -287v-20h-94z" />
<glyph unicode="&#xe9;" d="M87 548q0 152 38 257.5t104 171.5t154 95.5t188 29.5q136 0 227.5 -44t147 -121.5t79 -182.5t23.5 -227v-24h-772q0 -85 17.5 -156.5t54 -123t93.5 -80t137 -28.5q117 0 187.5 47t95.5 119l158 -45q-17 -45 -47.5 -90.5t-81.5 -82t-127.5 -60t-184.5 -23.5 q-240 0 -365.5 143t-125.5 425zM278 641h584q-15 171 -87 249.5t-207 78.5q-45 0 -94.5 -14.5t-91.5 -51.5t-71 -100.5t-33 -161.5zM440 1201v20l217 287h207v-29l-330 -278h-94z" />
<glyph unicode="&#xea;" d="M87 548q0 152 38 257.5t104 171.5t154 95.5t188 29.5q136 0 227.5 -44t147 -121.5t79 -182.5t23.5 -227v-24h-772q0 -85 17.5 -156.5t54 -123t93.5 -80t137 -28.5q117 0 187.5 47t95.5 119l158 -45q-17 -45 -47.5 -90.5t-81.5 -82t-127.5 -60t-184.5 -23.5 q-240 0 -365.5 143t-125.5 425zM245 1201v20l234 270h204l224 -270v-20h-105l-219 169h-2l-232 -169h-104zM278 641h584q-15 171 -87 249.5t-207 78.5q-45 0 -94.5 -14.5t-91.5 -51.5t-71 -100.5t-33 -161.5z" />
<glyph unicode="&#xeb;" d="M87 548q0 152 38 257.5t104 171.5t154 95.5t188 29.5q136 0 227.5 -44t147 -121.5t79 -182.5t23.5 -227v-24h-772q0 -85 17.5 -156.5t54 -123t93.5 -80t137 -28.5q117 0 187.5 47t95.5 119l158 -45q-17 -45 -47.5 -90.5t-81.5 -82t-127.5 -60t-184.5 -23.5 q-240 0 -365.5 143t-125.5 425zM278 641h584q-15 171 -87 249.5t-207 78.5q-45 0 -94.5 -14.5t-91.5 -51.5t-71 -100.5t-33 -161.5zM293 1219v184h165v-184h-165zM687 1219v184h163v-184h-163z" />
<glyph unicode="&#xec;" horiz-adv-x="569" d="M10 1479v29h207l217 -287v-20h-94zM194 0v1082h180v-1082h-180z" />
<glyph unicode="&#xed;" horiz-adv-x="569" d="M135 1201v20l217 287h207v-29l-330 -278h-94zM194 0v1082h180v-1082h-180z" />
<glyph unicode="&#xee;" horiz-adv-x="569" d="M-45 1201v20l234 270h204l224 -270v-20h-105l-219 169h-2l-232 -169h-104zM194 0v1082h180v-1082h-180z" />
<glyph unicode="&#xef;" horiz-adv-x="569" d="M8 1219v184h165v-184h-165zM194 0v1082h180v-1082h-180zM402 1219v184h163v-184h-163z" />
<glyph unicode="&#xf0;" d="M86 481q0 107 26 198t84 158t151 104.5t226 37.5q71 0 129.5 -16t101.5 -43q-43 86 -100.5 174t-133.5 157l-301 -133v114l218 94q-56 45 -116 84t-126 74h209q45 -20 86.5 -45.5t83.5 -56.5l306 132l-1 -112l-211 -92q81 -74 145.5 -162t108.5 -188t67.5 -211.5 t23.5 -232.5v-6q0 -122 -28.5 -220t-88.5 -167t-154 -106t-226 -37q-125 0 -215.5 36.5t-149.5 102.5t-87 158.5t-28 203.5zM275 481q0 -190 72 -279t217 -89q81 0 140 22t96.5 67t55.5 114.5t18 164.5q0 94 -16.5 162.5t-52 113.5t-92 67t-136.5 22q-81 0 -138.5 -22.5 t-94 -68.5t-53 -114.5t-16.5 -159.5z" />
<glyph unicode="&#xf1;" d="M140 1082h170q1 -5 2 -27t2.5 -50.5t2.5 -58t1 -49.5h3q26 47 57 85t72 64.5t94 41t123 14.5q90 0 155 -22t107 -68t61.5 -118.5t19.5 -172.5v-721h-181v686q0 79 -11.5 132t-37.5 85.5t-68.5 46t-105.5 13.5q-64 0 -115.5 -22.5t-88 -65t-56.5 -105t-20 -143.5v-627 h-180v851q0 34 -0.5 71.5t-1.5 71t-2 57.5t-2 31zM222 1201q5 45 15 92.5t32.5 86.5t59.5 64t96 25q44 0 86 -18.5t81 -41t73.5 -41t64.5 -18.5q54 0 81.5 31.5t35.5 87.5h92q-5 -44 -15 -91.5t-31.5 -86.5t-58.5 -64.5t-97 -25.5q-42 0 -84 18.5t-81 41t-74.5 41 t-66.5 18.5q-55 0 -82 -31t-36 -88h-91z" />
<glyph unicode="&#xf2;" d="M86 542q0 560 485 560q126 0 217.5 -35t150 -105t86.5 -175t28 -245q0 -284 -125 -423t-363 -139q-113 0 -202 34t-150.5 104t-94 175.5t-32.5 248.5zM275 542q0 -126 22 -208.5t60.5 -131.5t91 -69t114.5 -20q69 0 125 19.5t95 68.5t60 132t21 209t-19.5 208t-57 131 t-91.5 68.5t-122 19.5q-69 0 -124.5 -20.5t-94.5 -70t-59.5 -131.5t-20.5 -205zM329 1479v29h207l217 -287v-20h-94z" />
<glyph unicode="&#xf3;" d="M86 542q0 560 485 560q126 0 217.5 -35t150 -105t86.5 -175t28 -245q0 -284 -125 -423t-363 -139q-113 0 -202 34t-150.5 104t-94 175.5t-32.5 248.5zM275 542q0 -126 22 -208.5t60.5 -131.5t91 -69t114.5 -20q69 0 125 19.5t95 68.5t60 132t21 209t-19.5 208t-57 131 t-91.5 68.5t-122 19.5q-69 0 -124.5 -20.5t-94.5 -70t-59.5 -131.5t-20.5 -205zM431 1201v20l217 287h207v-29l-330 -278h-94z" />
<glyph unicode="&#xf4;" d="M86 542q0 560 485 560q126 0 217.5 -35t150 -105t86.5 -175t28 -245q0 -284 -125 -423t-363 -139q-113 0 -202 34t-150.5 104t-94 175.5t-32.5 248.5zM240 1201v20l234 270h204l224 -270v-20h-105l-219 169h-2l-232 -169h-104zM275 542q0 -126 22 -208.5t60.5 -131.5 t91 -69t114.5 -20q69 0 125 19.5t95 68.5t60 132t21 209t-19.5 208t-57 131t-91.5 68.5t-122 19.5q-69 0 -124.5 -20.5t-94.5 -70t-59.5 -131.5t-20.5 -205z" />
<glyph unicode="&#xf5;" d="M86 542q0 560 485 560q126 0 217.5 -35t150 -105t86.5 -175t28 -245q0 -284 -125 -423t-363 -139q-113 0 -202 34t-150.5 104t-94 175.5t-32.5 248.5zM224 1201q5 45 15 92.5t32.5 86.5t59.5 64t96 25q44 0 86 -18.5t81 -41t73.5 -41t64.5 -18.5q54 0 81.5 31.5 t35.5 87.5h92q-5 -44 -15 -91.5t-31.5 -86.5t-58.5 -64.5t-97 -25.5q-42 0 -84 18.5t-81 41t-74.5 41t-66.5 18.5q-55 0 -82 -31t-36 -88h-91zM275 542q0 -126 22 -208.5t60.5 -131.5t91 -69t114.5 -20q69 0 125 19.5t95 68.5t60 132t21 209t-19.5 208t-57 131t-91.5 68.5 t-122 19.5q-69 0 -124.5 -20.5t-94.5 -70t-59.5 -131.5t-20.5 -205z" />
<glyph unicode="&#xf6;" d="M86 542q0 560 485 560q126 0 217.5 -35t150 -105t86.5 -175t28 -245q0 -284 -125 -423t-363 -139q-113 0 -202 34t-150.5 104t-94 175.5t-32.5 248.5zM275 542q0 -126 22 -208.5t60.5 -131.5t91 -69t114.5 -20q69 0 125 19.5t95 68.5t60 132t21 209t-19.5 208t-57 131 t-91.5 68.5t-122 19.5q-69 0 -124.5 -20.5t-94.5 -70t-59.5 -131.5t-20.5 -205zM295 1219v184h165v-184h-165zM689 1219v184h163v-184h-163z" />
<glyph unicode="&#xf7;" horiz-adv-x="1124" d="M65 608v146h995v-146h-995zM478 223v183h168v-183h-168zM478 958v183h168v-183h-168z" />
<glyph unicode="&#xf8;" horiz-adv-x="1251" d="M44 -38l184 214q-41 68 -62 159t-21 207q0 560 485 560q103 0 181 -23t135 -68l91 105h167l-173 -201q42 -69 61.5 -161.5t19.5 -211.5q0 -284 -125 -423t-363 -139q-97 0 -175 24t-138 74l-100 -116h-167zM334 542q0 -130 24 -215l482 561q-37 45 -89 63t-118 18 q-69 0 -124.5 -20.5t-94.5 -70t-59.5 -131.5t-20.5 -205zM417 201q38 -49 90.5 -68.5t114.5 -19.5q69 0 125 19.5t95 68.5t60 132t21 209q0 68 -6 122.5t-17 98.5z" />
<glyph unicode="&#xf9;" d="M139 361v721h181v-686q0 -79 11.5 -132t37.5 -85.5t68.5 -46t105.5 -13.5q64 0 115.5 22.5t88 65t56.5 105t20 143.5v627h180v-851q0 -34 0.5 -71.5t1.5 -71t2 -57.5t2 -31h-170q-1 5 -2 27t-2.5 50.5t-2.5 58t-1 49.5h-3q-26 -47 -57 -85t-72 -64.5t-94 -41t-123 -14.5 q-90 0 -155 22t-107 68t-61.5 118t-19.5 173zM342 1479v29h207l217 -287v-20h-94z" />
<glyph unicode="&#xfa;" d="M139 361v721h181v-686q0 -79 11.5 -132t37.5 -85.5t68.5 -46t105.5 -13.5q64 0 115.5 22.5t88 65t56.5 105t20 143.5v627h180v-851q0 -34 0.5 -71.5t1.5 -71t2 -57.5t2 -31h-170q-1 5 -2 27t-2.5 50.5t-2.5 58t-1 49.5h-3q-26 -47 -57 -85t-72 -64.5t-94 -41t-123 -14.5 q-90 0 -155 22t-107 68t-61.5 118t-19.5 173zM415 1201v20l217 287h207v-29l-330 -278h-94z" />
<glyph unicode="&#xfb;" d="M139 361v721h181v-686q0 -79 11.5 -132t37.5 -85.5t68.5 -46t105.5 -13.5q64 0 115.5 22.5t88 65t56.5 105t20 143.5v627h180v-851q0 -34 0.5 -71.5t1.5 -71t2 -57.5t2 -31h-170q-1 5 -2 27t-2.5 50.5t-2.5 58t-1 49.5h-3q-26 -47 -57 -85t-72 -64.5t-94 -41t-123 -14.5 q-90 0 -155 22t-107 68t-61.5 118t-19.5 173zM239 1201v20l234 270h204l224 -270v-20h-105l-219 169h-2l-232 -169h-104z" />
<glyph unicode="&#xfc;" d="M139 361v721h181v-686q0 -79 11.5 -132t37.5 -85.5t68.5 -46t105.5 -13.5q64 0 115.5 22.5t88 65t56.5 105t20 143.5v627h180v-851q0 -34 0.5 -71.5t1.5 -71t2 -57.5t2 -31h-170q-1 5 -2 27t-2.5 50.5t-2.5 58t-1 49.5h-3q-26 -47 -57 -85t-72 -64.5t-94 -41t-123 -14.5 q-90 0 -155 22t-107 68t-61.5 118t-19.5 173zM282 1219v184h165v-184h-165zM676 1219v184h163v-184h-163z" />
<glyph unicode="&#xfd;" horiz-adv-x="1024" d="M5 1082h192l228 -598q10 -27 25.5 -72l31 -90t27.5 -81t14 -45q3 11 14.5 43.5t26 72.5t29.5 81t25 71l212 618h190l-416 -1082q-38 -98 -77.5 -176.5t-88.5 -134t-109 -85t-138 -29.5q-34 0 -63 2t-61 9v135q19 -3 43 -4.5t41 -1.5q79 0 147 59t119 188l17 43zM355 1201 v20l217 287h207v-29l-330 -278h-94z" />
<glyph unicode="&#xfe;" d="M138 -425v1909h180v-423q0 -30 -0.5 -57.5t-1.5 -48.5q-1 -25 -2 -47h6q25 52 57 88.5t73 60t91.5 34t113.5 10.5q112 0 188.5 -40t123 -112.5t66.5 -175t20 -227.5q0 -123 -20 -227t-66.5 -179t-123 -117.5t-188.5 -42.5q-116 0 -203 44t-133 144h-5q1 -2 1.5 -18t1 -40 t1 -53.5t0.5 -58.5v-423h-180zM318 528q0 -115 19 -194.5t55.5 -128.5t90.5 -70.5t124 -21.5q75 0 124.5 29t79 84t41.5 134.5t12 181.5q0 100 -12 178t-41.5 132t-78.5 82t-123 28q-60 0 -113 -17t-92.5 -65t-62.5 -132.5t-23 -219.5z" />
<glyph unicode="&#xff;" horiz-adv-x="1024" d="M5 1082h192l228 -598q10 -27 25.5 -72l31 -90t27.5 -81t14 -45q3 11 14.5 43.5t26 72.5t29.5 81t25 71l212 618h190l-416 -1082q-38 -98 -77.5 -176.5t-88.5 -134t-109 -85t-138 -29.5q-34 0 -63 2t-61 9v135q19 -3 43 -4.5t41 -1.5q79 0 147 59t119 188l17 43zM232 1219 v184h165v-184h-165zM626 1219v184h163v-184h-163z" />
<glyph unicode="&#x152;" horiz-adv-x="2048" d="M97 711q0 165 47 296.5t136 223t218 140.5t293 49q26 0 55 -1t57.5 -2.5t54.5 -3.5t45 -4h914v-156h-803v-452h743v-154h-743v-491h844v-156h-959q-20 -3 -45.5 -4.5t-54 -3t-57 -2t-53.5 -0.5q-169 0 -298.5 53t-217 148.5t-132 228t-44.5 291.5zM291 711 q0 -129 32 -233.5t95 -178.5t156 -114t215 -40q32 0 70 1t64 3v1111q-11 1 -27 2t-34.5 1.5t-37 0.5h-33.5q-125 0 -218.5 -37t-156 -108t-94 -174t-31.5 -234z" />
<glyph unicode="&#x153;" horiz-adv-x="1933" d="M86 542q0 279 126.5 419.5t368.5 140.5q281 0 398 -177q67 94 167 135.5t219 41.5q136 0 227.5 -44t147 -121.5t79 -182.5t23.5 -227v-24h-772q0 -85 17.5 -156.5t54 -123t93.5 -80t137 -28.5q117 0 187.5 47t95.5 119l158 -45q-17 -45 -47.5 -90.5t-81.5 -82t-127.5 -60 t-184.5 -23.5q-137 0 -236 45.5t-160 137.5q-63 -93 -163.5 -138t-237.5 -45q-113 0 -203.5 34t-154 104t-97.5 175.5t-34 248.5zM275 542q0 -126 23.5 -208.5t64 -131.5t94.5 -69t116 -20q69 0 126 19.5t97.5 68.5t62.5 132t22 209t-21 208t-59.5 131t-93.5 68.5t-123 19.5 q-69 0 -126 -20.5t-97.5 -70t-63 -131.5t-22.5 -205zM1072 641h584q-15 171 -87 249.5t-207 78.5q-45 0 -94.5 -14.5t-91.5 -51.5t-71 -100.5t-33 -161.5z" />
<glyph unicode="&#x178;" horiz-adv-x="1366" d="M45 1409h210l429 -671l427 671h210l-544 -825v-584h-190v584zM405 1530v184h165v-184h-165zM799 1530v184h163v-184h-163z" />
<glyph unicode="&#x2c6;" horiz-adv-x="682" d="M0 1201v20l234 270h204l224 -270v-20h-105l-219 169h-2l-232 -169h-104z" />
<glyph unicode="&#x2dc;" horiz-adv-x="682" d="M-23 1201q5 45 15 92.5t32.5 86.5t59.5 64t96 25q44 0 86 -18.5t81 -41t73.5 -41t64.5 -18.5q54 0 81.5 31.5t35.5 87.5h92q-5 -44 -15 -91.5t-31.5 -86.5t-58.5 -64.5t-97 -25.5q-42 0 -84 18.5t-81 41t-74.5 41t-66.5 18.5q-55 0 -82 -31t-36 -88h-91z" />
<glyph unicode="&#x2000;" horiz-adv-x="899" />
<glyph unicode="&#x2001;" horiz-adv-x="1798" />
<glyph unicode="&#x2002;" horiz-adv-x="899" />
<glyph unicode="&#x2003;" horiz-adv-x="1798" />
<glyph unicode="&#x2004;" horiz-adv-x="599" />
<glyph unicode="&#x2005;" horiz-adv-x="449" />
<glyph unicode="&#x2006;" horiz-adv-x="299" />
<glyph unicode="&#x2007;" horiz-adv-x="299" />
<glyph unicode="&#x2008;" horiz-adv-x="224" />
<glyph unicode="&#x2009;" horiz-adv-x="359" />
<glyph unicode="&#x200a;" horiz-adv-x="99" />
<glyph unicode="&#x2010;" horiz-adv-x="682" d="M91 464v160h500v-160h-500z" />
<glyph unicode="&#x2011;" horiz-adv-x="682" d="M91 464v160h500v-160h-500z" />
<glyph unicode="&#x2012;" horiz-adv-x="682" d="M91 464v160h500v-160h-500z" />
<glyph unicode="&#x2013;" d="M0 451v137h1138v-137h-1138z" />
<glyph unicode="&#x2014;" horiz-adv-x="2048" d="M0 451v137h2048v-137h-2048z" />
<glyph unicode="&#x2018;" horiz-adv-x="455" d="M127 952v146q0 52 5 95t15 80.5t25 70.5t35 65h121q-45 -65 -70 -131t-25 -131h89v-195h-195z" />
<glyph unicode="&#x2019;" horiz-adv-x="455" d="M127 952q45 65 69.5 131t24.5 129h-88v197h195v-145q0 -53 -4.5 -96t-14.5 -80.5t-24.5 -70.5t-34.5 -65h-123z" />
<glyph unicode="&#x201a;" horiz-adv-x="455" d="M127 -262q45 65 69.5 131t24.5 131h-88v195h195v-144q0 -53 -4.5 -96.5t-14.5 -81t-24.5 -70.5t-34.5 -65h-123z" />
<glyph unicode="&#x201c;" horiz-adv-x="682" d="M75 952v146q0 52 5 95t15 80.5t25 70.5t35 65h121q-45 -65 -70 -131t-25 -131h89v-195h-195zM407 952v146q0 52 5 95t14.5 80.5t24 70.5t34.5 65h122q-45 -65 -69.5 -131t-24.5 -131h88v-195h-194z" />
<glyph unicode="&#x201d;" horiz-adv-x="682" d="M75 952q45 65 69.5 131t24.5 131h-88v195h195v-145q0 -53 -4.5 -96t-14.5 -80.5t-24.5 -70.5t-34.5 -65h-123zM407 952q45 65 69.5 131t24.5 131h-88v195h194v-145q0 -53 -5 -96t-14.5 -80.5t-24.5 -70.5t-35 -65h-121z" />
<glyph unicode="&#x201e;" horiz-adv-x="682" d="M75 -262q45 65 69.5 131t24.5 131h-88v195h195v-144q0 -53 -4.5 -96.5t-14.5 -81t-24.5 -70.5t-34.5 -65h-123zM407 -262q45 65 69.5 131t24.5 131h-88v195h194v-144q0 -53 -5 -96.5t-14.5 -81t-24.5 -70.5t-35 -65h-121z" />
<glyph unicode="&#x2022;" horiz-adv-x="717" d="M81 682q0 57 21.5 107t59 87t87 58.5t106.5 21.5q58 0 109 -21.5t89 -58.5t60.5 -87t22.5 -107q0 -58 -22.5 -109t-60.5 -89.5t-89 -60.5t-109 -22q-57 0 -106.5 22t-87 60.5t-59 89.5t-21.5 109z" />
<glyph unicode="&#x2026;" horiz-adv-x="2048" d="M278 0v219h195v-219h-195zM929 0v219h192v-219h-192zM1576 0v219h194v-219h-194z" />
<glyph unicode="&#x202f;" horiz-adv-x="359" />
<glyph unicode="&#x2039;" horiz-adv-x="682" d="M88 506v63l336 371h167v-31l-335 -372l337 -367v-29h-169z" />
<glyph unicode="&#x203a;" horiz-adv-x="682" d="M89 141v29l338 367l-336 372v31h166l337 -371v-63l-337 -365h-168z" />
<glyph unicode="&#x205f;" horiz-adv-x="449" />
<glyph unicode="&#x20ac;" d="M16 502l40 129h120q-1 8 -2 31t-1 47q0 27 1 53.5t2 32.5h-160l40 127h129q15 122 51.5 216.5t98 159.5t148 98.5t201.5 33.5q97 0 170.5 -25t125 -68.5t83 -102.5t44.5 -127l-185 -14q-14 91 -74.5 141t-166.5 50q-68 0 -121 -19.5t-92.5 -63t-64.5 -112t-36 -167.5h446 l-40 -127h-413q-2 -16 -2.5 -39.5t-0.5 -46.5q0 -22 1 -40.5t3 -37.5h452l-40 -129h-404q9 -81 30 -150t59.5 -119t95.5 -78.5t137 -28.5q100 0 160 50t74 141l185 -14q-13 -68 -44.5 -127t-83 -102.5t-125 -68.5t-170.5 -25q-120 0 -208.5 38.5t-149 108t-95 165.5 t-47.5 210h-171z" />
<glyph unicode="&#x2122;" horiz-adv-x="2048" d="M188 1298v111h650v-111h-261v-664h-134v664h-255zM963 634v775h190l223 -563q2 -4 4.5 -10.5t4.5 -13.5l6 -18q20 51 36 92q7 18 13.5 35t12 31t9 23t3.5 11l168 413h184v-775h-126v425v194q-5 -11 -9 -22q-4 -9 -6.5 -18t-4.5 -14l-230 -565h-108l-163 413q-2 5 -14 37 t-26 70q-17 44 -37 99q-1 -10 -1 -20q-1 -8 -1 -17v-15v-567h-128z" />
<glyph unicode="&#xe000;" horiz-adv-x="1080" d="M0 0v1080h1080v-1080h-1080z" />
</font>
</defs>
</svg>
